<?xml version="1.0" encoding="UTF-8"?>
<svg xmlns="http://www.w3.org/2000/svg" height="350" viewBox="0 0 1000 350" width="1000">
  <font vert-adv-y="1024" vert-origin-x="512" vert-origin-y="768">
    <glyph d="M86 722C87 729 90 732 95 733 100 733 103 730 106 723l0-1C113 706 119 687 122 665 125 642 129 620 132 598l7-43 0-1C142 535 145 516 147 497 148 478 150 459 151 440 152 423 154 406 155 389 156 372 158 354 161 336l0-1C163 323 165 312 166 301 167 290 168 279 169 268l4-45 28-221-4-4 0-4C198-4 196-3 192-3 188-3 186-3 187-2 187-2 187-2 187-1l0 1-4 5C176 49 169 93 163 136 157 179 151 227 146 278l-2 10C143 288 140 288 135 288 130 288 124 288 118 289 111 289 105 289 100 289 95 289 92 289 91 289 86 289 80 289 73 290 65 291 59 290 54 289l-1-12C52 258 50 239 48 221 46 202 44 184 42 165 41 158 40 150 40 143 39 136 39 128 38 121l0-1C38 117 38 113 37 110 36 106 36 102 36 99 35 84 33 69 31 54 29 39 27 23 26 7l0-1C26-3 22-9 15-11 12-10 9-9 6-7 3-5 2-1 2 4l1 3C12 72 20 136 27 200 33 263 39 332 44 405 45 414 46 426 48 440 49 453 51 466 52 478l4 32C59 549 64 585 69 619 74 652 79 687 86 722M85 583C80 543 76 503 72 463 67 423 63 382 59 340l-2-30C62 309 69 308 76 309 83 310 88 310 92 310 101 310 110 310 119 309 127 308 135 308 143 310l-4 39 0 1C137 375 135 401 133 428 130 454 128 480 125 505 124 520 122 536 121 554 119 571 117 589 115 606 112 623 110 640 107 656 104 671 101 685 98 696 97 690 95 682 94 673 93 664 91 654 90 644 89 633 88 623 87 612 86 601 86 592 85 583z" unicode="A"></glyph>
    <glyph d="M287 719C293 719 298 721 302 725 306 722 310 719 313 716 316 713 319 709 320 705 320 702 317 701 310 701l-12 0C296 701 294 701 292 702 289 703 287 703 284 703 269 703 254 704 239 705 223 706 207 705 192 702l3-313 19 0C221 389 229 389 237 389 244 389 252 389 259 390 266 390 270 387 271 380l0-3C271 375 268 374 262 373l-14 0C239 373 231 373 223 372 214 371 205 370 195 369l0-10C195 355 195 351 195 348 194 344 194 340 194 336l0-69C194 258 194 250 195 241 195 232 195 222 195 213l0-194C198 18 202 17 206 17 209 17 213 17 217 17 215 17 215 17 216 18 217 18 220 18 224 19 227 19 231 19 236 20 240 21 244 21 247 21 256 23 266 24 279 24 284 24 289 23 293 22 296 20 298 16 298 10 298 7 298 4 297 3l-14 0C279 3 275 3 271 3 267 2 263 2 258 1 253 0 247 0 242-1 236-2 230-2 223-2l-11 0C206-2 200-2 195-2 189-2 183-1 178 0l-1-7 0 6C174 4 172 13 172 26 173 46 174 68 174 91 174 114 174 138 174 165 174 172 174 178 174 185 173 192 173 199 173 206l0 1C172 214 172 221 172 228 172 234 172 241 172 249l0 38C169 287 166 287 163 288 160 288 157 288 155 288 152 288 147 288 140 289 133 289 125 289 116 289 107 289 99 289 92 289 85 289 80 289 77 288l-3-10C70 251 66 225 61 199 56 173 50 147 45 122l0-2C45 119 45 118 45 118 44 118 44 117 44 115l-9-47C34 59 32 50 31 41 29 32 27 23 25 16 23 9 21 3 18-2 15-7 13-10 10-11 3-10-1-6-1-1l0 5 2 3C14 62 26 116 36 170 45 223 56 280 67 339l31 170C105 549 113 586 122 621 130 656 139 690 149 724 152 724 157 724 163 724 168 724 172 723 173 722l0-1C188 720 203 719 216 719 229 718 246 718 265 718 270 718 275 718 279 718 282 718 285 718 287 719M135 574C130 553 126 532 122 512 117 492 113 472 109 451 106 434 102 416 98 398 93 379 89 360 86 341l0-2C86 336 86 334 85 331 84 328 84 325 84 322l-2-13C87 308 92 307 97 308 102 309 108 309 115 309l13 0C135 309 142 309 149 308 156 307 164 307 171 308l0 20C171 349 171 367 172 380 172 393 172 406 173 417 174 427 174 438 174 450 174 461 174 476 174 494 174 499 174 504 174 510 173 516 173 523 173 532 172 545 172 562 172 582 172 602 172 622 172 641l0 1-4 46-3 17C162 705 159 702 157 697 155 691 153 684 152 675 151 666 149 656 148 645 146 634 144 623 142 612z" unicode="Æ"></glyph>
    <glyph d="M287 719C293 719 298 721 302 725 306 722 310 719 313 716 316 713 319 709 320 705 320 702 317 701 310 701l-12 0C296 701 294 701 292 702 289 703 287 703 284 703 269 703 254 704 239 705 223 706 207 705 192 702l3-313 19 0C221 389 229 389 237 389 244 389 252 389 259 390 266 390 270 387 271 380l0-3C271 375 268 374 262 373l-14 0C239 373 231 373 223 372 214 371 205 370 195 369l0-10C195 355 195 351 195 348 194 344 194 340 194 336l0-69C194 258 194 250 195 241 195 232 195 222 195 213l0-194C198 18 202 17 206 17 209 17 213 17 217 17 215 17 215 17 216 18 217 18 220 18 224 19 227 19 231 19 236 20 240 21 244 21 247 21 256 23 266 24 279 24 284 24 289 23 293 22 296 20 298 16 298 10 298 7 298 4 297 3l-14 0C279 3 275 3 271 3 267 2 263 2 258 1 253 0 247 0 242-1 236-2 230-2 223-2l-11 0C206-2 200-2 195-2 189-2 183-1 178 0l-1-7 0 6C174 4 172 13 172 26 173 46 174 68 174 91 174 114 174 138 174 165 174 172 174 178 174 185 173 192 173 199 173 206l0 1C172 214 172 221 172 228 172 234 172 241 172 249l0 38C169 287 166 287 163 288 160 288 157 288 155 288 152 288 147 288 140 289 133 289 125 289 116 289 107 289 99 289 92 289 85 289 80 289 77 288l-3-10C70 251 66 225 61 199 56 173 50 147 45 122l0-2C45 119 45 118 45 118 44 118 44 117 44 115l-9-47C34 59 32 50 31 41 29 32 27 23 25 16 23 9 21 3 18-2 15-7 13-10 10-11 3-10-1-6-1-1l0 5 2 3C14 62 26 116 36 170 45 223 56 280 67 339l31 170C105 549 113 586 122 621 130 656 139 690 149 724 152 724 157 724 163 724 168 724 172 723 173 722l0-1C188 720 203 719 216 719 229 718 246 718 265 718 270 718 275 718 279 718 282 718 285 718 287 719M135 574C130 553 126 532 122 512 117 492 113 472 109 451 106 434 102 416 98 398 93 379 89 360 86 341l0-2C86 336 86 334 85 331 84 328 84 325 84 322l-2-13C87 308 92 307 97 308 102 309 108 309 115 309l13 0C135 309 142 309 149 308 156 307 164 307 171 308l0 20C171 349 171 367 172 380 172 393 172 406 173 417 174 427 174 438 174 450 174 461 174 476 174 494 174 499 174 504 174 510 173 516 173 523 173 532 172 545 172 562 172 582 172 602 172 622 172 641l0 1-4 46-3 17C162 705 159 702 157 697 155 691 153 684 152 675 151 666 149 656 148 645 146 634 144 623 142 612M255 853C255 849 253 845 249 840 245 835 240 830 235 825 230 819 224 813 218 806 212 799 207 791 202 782 201 780 199 779 197 779 195 778 193 778 192 778 189 778 188 780 187 783 186 786 186 788 187 790 187 790 189 793 192 799 195 804 198 811 203 818 207 825 211 832 216 839 221 846 225 850 229 853 234 857 240 859 245 859 247 859 249 858 252 857 254 856 255 854 255 853z" unicode="Ǽ"></glyph>
    <glyph d="M86 722C87 729 90 732 95 733 100 733 103 730 106 723l0-1C113 706 119 687 122 665 125 642 129 620 132 598l7-43 0-1C142 535 145 516 147 497 148 478 150 459 151 440 152 423 154 406 155 389 156 372 158 354 161 336l0-1C163 323 165 312 166 301 167 290 168 279 169 268l4-45 28-221-4-4 0-4C198-4 196-3 192-3 188-3 186-3 187-2 187-2 187-2 187-1l0 1-4 5C176 49 169 93 163 136 157 179 151 227 146 278l-2 10C143 288 140 288 135 288 130 288 124 288 118 289 111 289 105 289 100 289 95 289 92 289 91 289 86 289 80 289 73 290 65 291 59 290 54 289l-1-12C52 258 50 239 48 221 46 202 44 184 42 165 41 158 40 150 40 143 39 136 39 128 38 121l0-1C38 117 38 113 37 110 36 106 36 102 36 99 35 84 33 69 31 54 29 39 27 23 26 7l0-1C26-3 22-9 15-11 12-10 9-9 6-7 3-5 2-1 2 4l1 3C12 72 20 136 27 200 33 263 39 332 44 405 45 414 46 426 48 440 49 453 51 466 52 478l4 32C59 549 64 585 69 619 74 652 79 687 86 722M85 583C80 543 76 503 72 463 67 423 63 382 59 340l-2-30C62 309 69 308 76 309 83 310 88 310 92 310 101 310 110 310 119 309 127 308 135 308 143 310l-4 39 0 1C137 375 135 401 133 428 130 454 128 480 125 505 124 520 122 536 121 554 119 571 117 589 115 606 112 623 110 640 107 656 104 671 101 685 98 696 97 690 95 682 94 673 93 664 91 654 90 644 89 633 88 623 87 612 86 601 86 592 85 583M173 853C173 849 171 845 167 840 163 835 158 830 153 825 148 819 142 813 136 806 130 799 125 791 120 782 119 780 117 779 115 779 113 778 111 778 110 778 107 778 106 780 105 783 104 786 104 788 105 790 105 790 107 793 110 799 113 804 116 811 121 818 125 825 129 832 134 839 139 846 143 850 147 853 152 857 158 859 163 859 165 859 167 858 170 857 172 856 173 854 173 853z" unicode="Á"></glyph>
    <glyph d="M86 722C87 729 90 732 95 733 100 733 103 730 106 723l0-1C113 706 119 687 122 665 125 642 129 620 132 598l7-43 0-1C142 535 145 516 147 497 148 478 150 459 151 440 152 423 154 406 155 389 156 372 158 354 161 336l0-1C163 323 165 312 166 301 167 290 168 279 169 268l4-45 28-221-4-4 0-4C198-4 196-3 192-3 188-3 186-3 187-2 187-2 187-2 187-1l0 1-4 5C176 49 169 93 163 136 157 179 151 227 146 278l-2 10C143 288 140 288 135 288 130 288 124 288 118 289 111 289 105 289 100 289 95 289 92 289 91 289 86 289 80 289 73 290 65 291 59 290 54 289l-1-12C52 258 50 239 48 221 46 202 44 184 42 165 41 158 40 150 40 143 39 136 39 128 38 121l0-1C38 117 38 113 37 110 36 106 36 102 36 99 35 84 33 69 31 54 29 39 27 23 26 7l0-1C26-3 22-9 15-11 12-10 9-9 6-7 3-5 2-1 2 4l1 3C12 72 20 136 27 200 33 263 39 332 44 405 45 414 46 426 48 440 49 453 51 466 52 478l4 32C59 549 64 585 69 619 74 652 79 687 86 722M85 583C80 543 76 503 72 463 67 423 63 382 59 340l-2-30C62 309 69 308 76 309 83 310 88 310 92 310 101 310 110 310 119 309 127 308 135 308 143 310l-4 39 0 1C137 375 135 401 133 428 130 454 128 480 125 505 124 520 122 536 121 554 119 571 117 589 115 606 112 623 110 640 107 656 104 671 101 685 98 696 97 690 95 682 94 673 93 664 91 654 90 644 89 633 88 623 87 612 86 601 86 592 85 583M72 803C77 800 82 799 85 798 88 797 92 797 97 797 98 797 100 797 105 797 109 796 114 797 120 799 125 800 130 803 135 808 140 813 143 820 145 830 146 838 149 842 155 842 159 842 161 839 161 833 161 818 156 804 145 792 134 780 116 774 93 774 86 774 79 776 72 780 65 783 58 788 53 794 48 799 43 805 40 812 37 819 35 825 35 831 35 836 38 839 43 839 46 839 48 838 50 835 51 832 53 829 54 825 55 821 57 817 60 813 63 809 67 806 72 803z" unicode="Ă"></glyph>
    <glyph d="M86 722C87 729 90 732 95 733 100 733 103 730 106 723l0-1C113 706 119 687 122 665 125 642 129 620 132 598l7-43 0-1C142 535 145 516 147 497 148 478 150 459 151 440 152 423 154 406 155 389 156 372 158 354 161 336l0-1C163 323 165 312 166 301 167 290 168 279 169 268l4-45 28-221-4-4 0-4C198-4 196-3 192-3 188-3 186-3 187-2 187-2 187-2 187-1l0 1-4 5C176 49 169 93 163 136 157 179 151 227 146 278l-2 10C143 288 140 288 135 288 130 288 124 288 118 289 111 289 105 289 100 289 95 289 92 289 91 289 86 289 80 289 73 290 65 291 59 290 54 289l-1-12C52 258 50 239 48 221 46 202 44 184 42 165 41 158 40 150 40 143 39 136 39 128 38 121l0-1C38 117 38 113 37 110 36 106 36 102 36 99 35 84 33 69 31 54 29 39 27 23 26 7l0-1C26-3 22-9 15-11 12-10 9-9 6-7 3-5 2-1 2 4l1 3C12 72 20 136 27 200 33 263 39 332 44 405 45 414 46 426 48 440 49 453 51 466 52 478l4 32C59 549 64 585 69 619 74 652 79 687 86 722M85 583C80 543 76 503 72 463 67 423 63 382 59 340l-2-30C62 309 69 308 76 309 83 310 88 310 92 310 101 310 110 310 119 309 127 308 135 308 143 310l-4 39 0 1C137 375 135 401 133 428 130 454 128 480 125 505 124 520 122 536 121 554 119 571 117 589 115 606 112 623 110 640 107 656 104 671 101 685 98 696 97 690 95 682 94 673 93 664 91 654 90 644 89 633 88 623 87 612 86 601 86 592 85 583M74 842C78 847 82 852 86 855 90 858 94 860 97 860 99 860 102 858 107 853 112 848 116 844 119 840 123 834 127 830 131 827 134 824 138 821 141 818 144 815 147 811 150 808 153 804 157 799 161 792 162 791 162 790 162 788 162 785 160 783 156 783 152 783 148 785 144 789l-1 0C138 795 133 800 130 803 126 806 123 809 120 812 117 815 113 818 110 821 106 824 101 829 96 836 87 827 79 819 73 812 66 805 58 798 49 789l-10-5C38 784 37 784 36 783 33 783 30 786 29 791 36 802 43 811 50 816 57 821 65 830 73 841z" unicode="Â"></glyph>
    <glyph d="M86 722C87 729 90 732 95 733 100 733 103 730 106 723l0-1C113 706 119 687 122 665 125 642 129 620 132 598l7-43 0-1C142 535 145 516 147 497 148 478 150 459 151 440 152 423 154 406 155 389 156 372 158 354 161 336l0-1C163 323 165 312 166 301 167 290 168 279 169 268l4-45 28-221-4-4 0-4C198-4 196-3 192-3 188-3 186-3 187-2 187-2 187-2 187-1l0 1-4 5C176 49 169 93 163 136 157 179 151 227 146 278l-2 10C143 288 140 288 135 288 130 288 124 288 118 289 111 289 105 289 100 289 95 289 92 289 91 289 86 289 80 289 73 290 65 291 59 290 54 289l-1-12C52 258 50 239 48 221 46 202 44 184 42 165 41 158 40 150 40 143 39 136 39 128 38 121l0-1C38 117 38 113 37 110 36 106 36 102 36 99 35 84 33 69 31 54 29 39 27 23 26 7l0-1C26-3 22-9 15-11 12-10 9-9 6-7 3-5 2-1 2 4l1 3C12 72 20 136 27 200 33 263 39 332 44 405 45 414 46 426 48 440 49 453 51 466 52 478l4 32C59 549 64 585 69 619 74 652 79 687 86 722M85 583C80 543 76 503 72 463 67 423 63 382 59 340l-2-30C62 309 69 308 76 309 83 310 88 310 92 310 101 310 110 310 119 309 127 308 135 308 143 310l-4 39 0 1C137 375 135 401 133 428 130 454 128 480 125 505 124 520 122 536 121 554 119 571 117 589 115 606 112 623 110 640 107 656 104 671 101 685 98 696 97 690 95 682 94 673 93 664 91 654 90 644 89 633 88 623 87 612 86 601 86 592 85 583M155 815C158 813 160 810 160 806 160 794 154 788 141 788 138 788 135 790 132 793 129 796 127 799 127 803l0 4C131 814 136 817 143 817 144 817 146 817 148 817 149 817 152 816 155 815M50 820C59 820 66 818 69 815 72 811 73 805 73 797 73 794 72 791 70 788 68 784 64 782 59 782 44 782 37 788 37 801 37 804 38 807 39 810 42 817 45 820 50 820z" unicode="Ä"></glyph>
    <glyph d="M86 722C87 729 90 732 95 733 100 733 103 730 106 723l0-1C113 706 119 687 122 665 125 642 129 620 132 598l7-43 0-1C142 535 145 516 147 497 148 478 150 459 151 440 152 423 154 406 155 389 156 372 158 354 161 336l0-1C163 323 165 312 166 301 167 290 168 279 169 268l4-45 28-221-4-4 0-4C198-4 196-3 192-3 188-3 186-3 187-2 187-2 187-2 187-1l0 1-4 5C176 49 169 93 163 136 157 179 151 227 146 278l-2 10C143 288 140 288 135 288 130 288 124 288 118 289 111 289 105 289 100 289 95 289 92 289 91 289 86 289 80 289 73 290 65 291 59 290 54 289l-1-12C52 258 50 239 48 221 46 202 44 184 42 165 41 158 40 150 40 143 39 136 39 128 38 121l0-1C38 117 38 113 37 110 36 106 36 102 36 99 35 84 33 69 31 54 29 39 27 23 26 7l0-1C26-3 22-9 15-11 12-10 9-9 6-7 3-5 2-1 2 4l1 3C12 72 20 136 27 200 33 263 39 332 44 405 45 414 46 426 48 440 49 453 51 466 52 478l4 32C59 549 64 585 69 619 74 652 79 687 86 722M85 583C80 543 76 503 72 463 67 423 63 382 59 340l-2-30C62 309 69 308 76 309 83 310 88 310 92 310 101 310 110 310 119 309 127 308 135 308 143 310l-4 39 0 1C137 375 135 401 133 428 130 454 128 480 125 505 124 520 122 536 121 554 119 571 117 589 115 606 112 623 110 640 107 656 104 671 101 685 98 696 97 690 95 682 94 673 93 664 91 654 90 644 89 633 88 623 87 612 86 601 86 592 85 583M103 789C104 788 104 786 104 785 104 784 104 783 103 782 102 781 99 781 92 781l-4 3C85 785 82 787 80 788 78 789 76 791 74 794 71 797 68 800 64 805 59 809 55 813 51 818 46 822 43 826 40 830 37 834 35 837 35 840 35 843 36 845 37 847 38 848 42 849 47 849 50 849 53 849 55 848 56 847 59 845 62 842l1-1C70 831 77 822 84 815 90 807 96 798 103 789z" unicode="À"></glyph>
    <glyph d="M86 722C87 729 90 732 95 733 100 733 103 730 106 723l0-1C113 706 119 687 122 665 125 642 129 620 132 598l7-43 0-1C142 535 145 516 147 497 148 478 150 459 151 440 152 423 154 406 155 389 156 372 158 354 161 336l0-1C163 323 165 312 166 301 167 290 168 279 169 268l4-45 28-221-4-4 0-4C198-4 196-3 192-3 188-3 186-3 187-2 187-2 187-2 187-1l0 1-4 5C176 49 169 93 163 136 157 179 151 227 146 278l-2 10C143 288 140 288 135 288 130 288 124 288 118 289 111 289 105 289 100 289 95 289 92 289 91 289 86 289 80 289 73 290 65 291 59 290 54 289l-1-12C52 258 50 239 48 221 46 202 44 184 42 165 41 158 40 150 40 143 39 136 39 128 38 121l0-1C38 117 38 113 37 110 36 106 36 102 36 99 35 84 33 69 31 54 29 39 27 23 26 7l0-1C26-3 22-9 15-11 12-10 9-9 6-7 3-5 2-1 2 4l1 3C12 72 20 136 27 200 33 263 39 332 44 405 45 414 46 426 48 440 49 453 51 466 52 478l4 32C59 549 64 585 69 619 74 652 79 687 86 722M85 583C80 543 76 503 72 463 67 423 63 382 59 340l-2-30C62 309 69 308 76 309 83 310 88 310 92 310 101 310 110 310 119 309 127 308 135 308 143 310l-4 39 0 1C137 375 135 401 133 428 130 454 128 480 125 505 124 520 122 536 121 554 119 571 117 589 115 606 112 623 110 640 107 656 104 671 101 685 98 696 97 690 95 682 94 673 93 664 91 654 90 644 89 633 88 623 87 612 86 601 86 592 85 583M152 800C153 798 155 796 156 795 157 794 157 791 157 788 157 786 157 785 156 785 155 784 154 783 153 781 148 782 138 783 123 784 108 784 91 784 73 784l-23 0C45 784 42 785 41 787 40 788 39 791 39 794 39 795 40 797 43 799 46 801 51 802 58 802 63 802 73 802 87 802 100 802 113 802 124 803 135 803 145 802 152 800z" unicode="Ā"></glyph>
    <glyph d="M86 722C87 729 90 732 95 733 100 733 103 730 106 723l0-1C113 706 119 687 122 665 125 642 129 620 132 598l7-43 0-1C142 535 145 516 147 497 148 478 150 459 151 440 152 423 154 406 155 389 156 372 158 354 161 336l0-1C163 323 165 312 166 301 167 290 168 279 169 268l4-45 28-221-4-4 0-4C198-4 196-3 192-3 188-3 186-3 187-2 187-2 187-2 187-1l0 1-4 5C176 49 169 93 163 136 157 179 151 227 146 278l-2 10C143 288 140 288 135 288 130 288 124 288 118 289 111 289 105 289 100 289 95 289 92 289 91 289 86 289 80 289 73 290 65 291 59 290 54 289l-1-12C52 258 50 239 48 221 46 202 44 184 42 165 41 158 40 150 40 143 39 136 39 128 38 121l0-1C38 117 38 113 37 110 36 106 36 102 36 99 35 84 33 69 31 54 29 39 27 23 26 7l0-1C26-3 22-9 15-11 12-10 9-9 6-7 3-5 2-1 2 4l1 3C12 72 20 136 27 200 33 263 39 332 44 405 45 414 46 426 48 440 49 453 51 466 52 478l4 32C59 549 64 585 69 619 74 652 79 687 86 722M85 583C80 543 76 503 72 463 67 423 63 382 59 340l-2-30C62 309 69 308 76 309 83 310 88 310 92 310 101 310 110 310 119 309 127 308 135 308 143 310l-4 39 0 1C137 375 135 401 133 428 130 454 128 480 125 505 124 520 122 536 121 554 119 571 117 589 115 606 112 623 110 640 107 656 104 671 101 685 98 696 97 690 95 682 94 673 93 664 91 654 90 644 89 633 88 623 87 612 86 601 86 592 85 583M199 11C181-3 168-14 161-22 154-31 149-43 147-59 149-64 153-69 158-74 163-79 168-81 174-81 177-80 180-79 183-76 186-73 190-70 194-67 197-64 200-61 203-58 206-55 208-54 209-54 213-54 216-57 218-63 211-76 203-85 196-89 188-93 180-96 173-97 163-97 153-93 143-85 132-76 127-69 126-64 125-59 125-55 125-54 125-50 125-47 126-44 127-42 129-38 132-32 135-27 138-22 141-19 144-16 147-14 151-11 154-8 158-5 163-2 168 1 173 5 180 11z" unicode="Ą"></glyph>
    <glyph d="M86 722C87 729 90 732 95 733 100 733 103 730 106 723l0-1C113 706 119 687 122 665 125 642 129 620 132 598l7-43 0-1C142 535 145 516 147 497 148 478 150 459 151 440 152 423 154 406 155 389 156 372 158 354 161 336l0-1C163 323 165 312 166 301 167 290 168 279 169 268l4-45 28-221-4-4 0-4C198-4 196-3 192-3 188-3 186-3 187-2 187-2 187-2 187-1l0 1-4 5C176 49 169 93 163 136 157 179 151 227 146 278l-2 10C143 288 140 288 135 288 130 288 124 288 118 289 111 289 105 289 100 289 95 289 92 289 91 289 86 289 80 289 73 290 65 291 59 290 54 289l-1-12C52 258 50 239 48 221 46 202 44 184 42 165 41 158 40 150 40 143 39 136 39 128 38 121l0-1C38 117 38 113 37 110 36 106 36 102 36 99 35 84 33 69 31 54 29 39 27 23 26 7l0-1C26-3 22-9 15-11 12-10 9-9 6-7 3-5 2-1 2 4l1 3C12 72 20 136 27 200 33 263 39 332 44 405 45 414 46 426 48 440 49 453 51 466 52 478l4 32C59 549 64 585 69 619 74 652 79 687 86 722M85 583C80 543 76 503 72 463 67 423 63 382 59 340l-2-30C62 309 69 308 76 309 83 310 88 310 92 310 101 310 110 310 119 309 127 308 135 308 143 310l-4 39 0 1C137 375 135 401 133 428 130 454 128 480 125 505 124 520 122 536 121 554 119 571 117 589 115 606 112 623 110 640 107 656 104 671 101 685 98 696 97 690 95 682 94 673 93 664 91 654 90 644 89 633 88 623 87 612 86 601 86 592 85 583M64 858C68 863 72 866 76 869 79 872 84 873 90 872 93 872 98 872 103 871 108 870 113 867 119 861 125 854 129 847 132 841 134 835 136 829 138 822l0-3C138 817 138 815 138 812 137 809 136 805 134 802l-11-12C120 787 116 786 112 786l-7 0C102 787 99 788 94 790 89 791 85 794 82 797l-8 7C71 807 68 810 66 814 64 817 62 825 59 837 59 841 59 845 59 849 59 852 61 855 64 858M84 852C78 850 75 846 75 840 75 830 79 821 86 814 93 807 99 803 106 803 113 803 117 805 120 810 123 814 124 817 124 820 124 823 123 827 122 831 120 834 118 838 115 843l-5 5C101 853 93 854 84 852z" unicode="Å"></glyph>
    <glyph d="M86 722C87 729 90 732 95 733 100 733 103 730 106 723l0-1C113 706 119 687 122 665 125 642 129 620 132 598l7-43 0-1C142 535 145 516 147 497 148 478 150 459 151 440 152 423 154 406 155 389 156 372 158 354 161 336l0-1C163 323 165 312 166 301 167 290 168 279 169 268l4-45 28-221-4-4 0-4C198-4 196-3 192-3 188-3 186-3 187-2 187-2 187-2 187-1l0 1-4 5C176 49 169 93 163 136 157 179 151 227 146 278l-2 10C143 288 140 288 135 288 130 288 124 288 118 289 111 289 105 289 100 289 95 289 92 289 91 289 86 289 80 289 73 290 65 291 59 290 54 289l-1-12C52 258 50 239 48 221 46 202 44 184 42 165 41 158 40 150 40 143 39 136 39 128 38 121l0-1C38 117 38 113 37 110 36 106 36 102 36 99 35 84 33 69 31 54 29 39 27 23 26 7l0-1C26-3 22-9 15-11 12-10 9-9 6-7 3-5 2-1 2 4l1 3C12 72 20 136 27 200 33 263 39 332 44 405 45 414 46 426 48 440 49 453 51 466 52 478l4 32C59 549 64 585 69 619 74 652 79 687 86 722M85 583C80 543 76 503 72 463 67 423 63 382 59 340l-2-30C62 309 69 308 76 309 83 310 88 310 92 310 101 310 110 310 119 309 127 308 135 308 143 310l-4 39 0 1C137 375 135 401 133 428 130 454 128 480 125 505 124 520 122 536 121 554 119 571 117 589 115 606 112 623 110 640 107 656 104 671 101 685 98 696 97 690 95 682 94 673 93 664 91 654 90 644 89 633 88 623 87 612 86 601 86 592 85 583M150 778C144 773 137 771 129 771 121 771 114 773 109 776 103 779 98 783 93 788 88 792 83 796 79 799 74 802 70 804 66 804 61 804 57 803 55 800 52 797 50 794 49 791 47 787 45 784 43 781 40 778 37 777 33 777 30 777 28 778 28 780 28 795 32 807 41 814 49 821 58 825 67 825 73 825 78 823 83 820 88 817 92 813 97 809 102 805 106 801 111 798 116 795 121 793 127 793 135 793 141 796 146 801 151 806 153 812 153 819l0 6C153 828 154 829 157 829 160 829 163 827 166 823 169 819 170 815 170 812 170 799 163 788 150 778z" unicode="Ã"></glyph>
    <glyph d="M127-4C124-5 121-5 118-5 115-6 111-6 107-6 103-6 99-6 95-5 90-4 86-4 82-3 79-2 75-2 72-1 68-1 65-1 62-1l-9 0C48-1 43 0 40 1 37 2 34 8 33 18 32 28 31 44 31 66 30 87 30 118 30 159l0 262C30 438 30 456 30 474 29 491 29 512 29 535l0 40 1 135C30 717 33 720 40 721 47 722 53 722 60 722l24 0C89 723 93 724 96 724 105 724 115 723 126 720 137 717 147 711 157 700 167 689 175 674 182 653 189 632 192 603 192 567 192 528 191 496 190 469 188 442 180 418 167 396l-10-17 0-12C172 345 183 317 189 283 194 248 197 207 197 158 197 127 195 101 192 82 189 62 184 46 178 35 172 23 165 14 156 9 147 3 138-1 127-4M90 16C94 15 98 15 102 15 105 14 109 14 112 14 137 14 154 25 163 46 172 67 176 103 176 153l0 14C176 184 176 203 175 226 174 248 171 269 168 290 165 311 159 328 152 343 144 357 134 364 121 364 118 364 115 364 112 365 109 365 106 365 103 365l-14 0C83 365 77 365 71 364 64 363 58 361 53 358l0-9C53 345 53 341 53 338 52 334 52 330 52 327l0-118C52 194 52 183 52 174 52 165 52 157 53 152 53 147 53 143 53 140 53 137 53 135 53 133l0-112M50 392l0-10C53 383 57 384 61 384 64 384 68 384 71 384l11 0C92 384 101 384 108 385 115 385 121 384 126 383l0-1C142 387 154 404 161 432 168 460 171 494 171 533 171 556 170 578 169 599 167 620 163 638 158 654 152 670 144 683 133 693 122 703 108 708 91 709 89 708 87 708 84 708 81 708 79 708 77 708 74 708 71 708 68 708 65 707 61 706 58 705l-9 0 0-11C49 691 49 688 50 685 50 682 50 678 50 675l0-37C50 619 50 595 50 568 49 541 49 515 49 490l0-81z" unicode="B"></glyph>
    <glyph d="M174 567C174 567 173 567 171 567 166 567 164 568 163 571l-8 37C152 621 150 633 147 646 144 659 140 670 136 681 131 691 126 699 120 706 113 712 106 715 97 715 88 715 78 708 67 694 55 680 47 660 44 635l0-1C44 629 44 624 44 619 43 614 43 608 43 603 42 594 42 585 42 576 42 567 42 559 42 550 42 545 42 539 42 534 41 529 41 523 41 517l0-87C41 411 41 393 41 374 40 355 40 337 40 318 40 291 40 264 41 237 42 210 43 184 44 159 45 144 45 131 46 118 47 105 48 91 51 77 55 52 61 34 70 25 79 15 88 10 97 10 106 10 117 15 129 24 140 33 149 48 154 67 156 72 157 78 158 87 159 96 159 105 160 114l0 1C161 124 161 131 162 137 163 143 164 146 167 147 174 147 178 144 179 137 180 130 181 123 181 116 181 78 174 47 159 24 144 1 124-11 99-11 87-11 76-6 67 3 57 12 49 24 43 41 36 57 31 76 28 98 24 120 22 144 22 170 22 188 22 206 22 224 22 242 22 260 21 278l-2 143 0 1C18 427 18 433 18 438 18 443 18 448 18 453 18 468 18 484 19 500 19 516 19 532 20 548 21 559 21 570 22 580 22 590 22 600 22 611 24 686 47 727 91 734l7 0C104 734 110 734 115 733 120 732 125 729 130 726 136 721 142 713 148 703 154 693 159 682 164 670 169 657 173 644 176 631 179 618 180 605 180 593 180 588 180 583 179 580 178 577 176 572 174 567z" unicode="C"></glyph>
    <glyph d="M174 567C174 567 173 567 171 567 166 567 164 568 163 571l-8 37C152 621 150 633 147 646 144 659 140 670 136 681 131 691 126 699 120 706 113 712 106 715 97 715 88 715 78 708 67 694 55 680 47 660 44 635l0-1C44 629 44 624 44 619 43 614 43 608 43 603 42 594 42 585 42 576 42 567 42 559 42 550 42 545 42 539 42 534 41 529 41 523 41 517l0-87C41 411 41 393 41 374 40 355 40 337 40 318 40 291 40 264 41 237 42 210 43 184 44 159 45 144 45 131 46 118 47 105 48 91 51 77 55 52 61 34 70 25 79 15 88 10 97 10 106 10 117 15 129 24 140 33 149 48 154 67 156 72 157 78 158 87 159 96 159 105 160 114l0 1C161 124 161 131 162 137 163 143 164 146 167 147 174 147 178 144 179 137 180 130 181 123 181 116 181 78 174 47 159 24 144 1 124-11 99-11 87-11 76-6 67 3 57 12 49 24 43 41 36 57 31 76 28 98 24 120 22 144 22 170 22 188 22 206 22 224 22 242 22 260 21 278l-2 143 0 1C18 427 18 433 18 438 18 443 18 448 18 453 18 468 18 484 19 500 19 516 19 532 20 548 21 559 21 570 22 580 22 590 22 600 22 611 24 686 47 727 91 734l7 0C104 734 110 734 115 733 120 732 125 729 130 726 136 721 142 713 148 703 154 693 159 682 164 670 169 657 173 644 176 631 179 618 180 605 180 593 180 588 180 583 179 580 178 577 176 572 174 567M161 853C161 849 159 845 155 840 151 835 146 830 141 825 136 819 130 813 124 806 118 799 113 791 108 782 107 780 105 779 103 779 101 778 99 778 98 778 95 778 94 780 93 783 92 786 92 788 93 790 93 790 95 793 98 799 101 804 104 811 109 818 113 825 117 832 122 839 127 846 131 850 135 853 140 857 146 859 151 859 153 859 155 858 158 857 160 856 161 854 161 853z" unicode="Ć"></glyph>
    <glyph d="M174 567C174 567 173 567 171 567 166 567 164 568 163 571l-8 37C152 621 150 633 147 646 144 659 140 670 136 681 131 691 126 699 120 706 113 712 106 715 97 715 88 715 78 708 67 694 55 680 47 660 44 635l0-1C44 629 44 624 44 619 43 614 43 608 43 603 42 594 42 585 42 576 42 567 42 559 42 550 42 545 42 539 42 534 41 529 41 523 41 517l0-87C41 411 41 393 41 374 40 355 40 337 40 318 40 291 40 264 41 237 42 210 43 184 44 159 45 144 45 131 46 118 47 105 48 91 51 77 55 52 61 34 70 25 79 15 88 10 97 10 106 10 117 15 129 24 140 33 149 48 154 67 156 72 157 78 158 87 159 96 159 105 160 114l0 1C161 124 161 131 162 137 163 143 164 146 167 147 174 147 178 144 179 137 180 130 181 123 181 116 181 78 174 47 159 24 144 1 124-11 99-11 87-11 76-6 67 3 57 12 49 24 43 41 36 57 31 76 28 98 24 120 22 144 22 170 22 188 22 206 22 224 22 242 22 260 21 278l-2 143 0 1C18 427 18 433 18 438 18 443 18 448 18 453 18 468 18 484 19 500 19 516 19 532 20 548 21 559 21 570 22 580 22 590 22 600 22 611 24 686 47 727 91 734l7 0C104 734 110 734 115 733 120 732 125 729 130 726 136 721 142 713 148 703 154 693 159 682 164 670 169 657 173 644 176 631 179 618 180 605 180 593 180 588 180 583 179 580 178 577 176 572 174 567M81 790C71 800 63 808 56 815 49 821 43 830 36 841 37 846 39 848 43 848l3 0 10-5C65 834 73 827 79 820 85 813 93 805 102 796 107 802 111 807 115 811 118 814 122 817 125 820 128 823 132 826 136 829 139 832 144 837 149 843 152 846 156 848 161 848 165 848 167 847 167 844 167 842 167 841 166 840 162 833 158 828 155 825 152 821 149 818 146 815 143 812 139 809 136 806 132 803 128 798 124 792 121 788 117 784 112 780 107 775 104 773 103 773 100 773 96 775 93 779 89 782 85 786 81 790z" unicode="Č"></glyph>
    <glyph d="M174 567C174 567 173 567 171 567 166 567 164 568 163 571l-8 37C152 621 150 633 147 646 144 659 140 670 136 681 131 691 126 699 120 706 113 712 106 715 97 715 88 715 78 708 67 694 55 680 47 660 44 635l0-1C44 629 44 624 44 619 43 614 43 608 43 603 42 594 42 585 42 576 42 567 42 559 42 550 42 545 42 539 42 534 41 529 41 523 41 517l0-87C41 411 41 393 41 374 40 355 40 337 40 318 40 291 40 264 41 237 42 210 43 184 44 159 45 144 45 131 46 118 47 105 48 91 51 77 55 52 61 34 70 25 79 15 88 10 97 10 106 10 117 15 129 24 140 33 149 48 154 67 156 72 157 78 158 87 159 96 159 105 160 114l0 1C161 124 161 131 162 137 163 143 164 146 167 147 174 147 178 144 179 137 180 130 181 123 181 116 181 78 174 47 159 24 144 1 124-11 99-11 87-11 76-6 67 3 57 12 49 24 43 41 36 57 31 76 28 98 24 120 22 144 22 170 22 188 22 206 22 224 22 242 22 260 21 278l-2 143 0 1C18 427 18 433 18 438 18 443 18 448 18 453 18 468 18 484 19 500 19 516 19 532 20 548 21 559 21 570 22 580 22 590 22 600 22 611 24 686 47 727 91 734l7 0C104 734 110 734 115 733 120 732 125 729 130 726 136 721 142 713 148 703 154 693 159 682 164 670 169 657 173 644 176 631 179 618 180 605 180 593 180 588 180 583 179 580 178 577 176 572 174 567M136-29C139-32 140-37 140-42l0-6C140-57 138-67 135-76 132-86 123-94 108-99 104-102 99-103 94-103 90-103 86-102 82-101 78-100 74-98 71-97 68-95 65-92 62-89 59-86 57-83 57-79 57-78 57-76 58-75 58-74 59-72 61-69l21-12C84-82 86-82 89-82 96-82 103-80 110-75 117-70 121-63 123-53l0 2C123-50 123-48 123-47 122-46 122-45 122-43l-42-6C77-43 75-39 74-38 73-37 73-35 73-34 73-33 74-31 77-28 79-25 81-21 84-17 87-13 89-9 92-6 95-3 96-1 97 0l16 0-7-11C105-14 102-18 98-24 100-23 104-23 109-23 119-23 128-25 136-29z" unicode="Ç"></glyph>
    <glyph d="M174 567C174 567 173 567 171 567 166 567 164 568 163 571l-8 37C152 621 150 633 147 646 144 659 140 670 136 681 131 691 126 699 120 706 113 712 106 715 97 715 88 715 78 708 67 694 55 680 47 660 44 635l0-1C44 629 44 624 44 619 43 614 43 608 43 603 42 594 42 585 42 576 42 567 42 559 42 550 42 545 42 539 42 534 41 529 41 523 41 517l0-87C41 411 41 393 41 374 40 355 40 337 40 318 40 291 40 264 41 237 42 210 43 184 44 159 45 144 45 131 46 118 47 105 48 91 51 77 55 52 61 34 70 25 79 15 88 10 97 10 106 10 117 15 129 24 140 33 149 48 154 67 156 72 157 78 158 87 159 96 159 105 160 114l0 1C161 124 161 131 162 137 163 143 164 146 167 147 174 147 178 144 179 137 180 130 181 123 181 116 181 78 174 47 159 24 144 1 124-11 99-11 87-11 76-6 67 3 57 12 49 24 43 41 36 57 31 76 28 98 24 120 22 144 22 170 22 188 22 206 22 224 22 242 22 260 21 278l-2 143 0 1C18 427 18 433 18 438 18 443 18 448 18 453 18 468 18 484 19 500 19 516 19 532 20 548 21 559 21 570 22 580 22 590 22 600 22 611 24 686 47 727 91 734l7 0C104 734 110 734 115 733 120 732 125 729 130 726 136 721 142 713 148 703 154 693 159 682 164 670 169 657 173 644 176 631 179 618 180 605 180 593 180 588 180 583 179 580 178 577 176 572 174 567M75 842C79 847 83 852 87 855 91 858 95 860 98 860 100 860 103 858 108 853 113 848 117 844 120 840 124 834 128 830 132 827 135 824 139 821 142 818 145 815 148 811 151 808 154 804 158 799 162 792 163 791 163 790 163 788 163 785 161 783 157 783 153 783 149 785 145 789l-1 0C139 795 134 800 131 803 127 806 124 809 121 812 118 815 114 818 111 821 107 824 102 829 97 836 88 827 80 819 74 812 67 805 59 798 50 789l-10-5C39 784 38 784 37 783 34 783 31 786 30 791 37 802 44 811 51 816 58 821 66 830 74 841z" unicode="Ĉ"></glyph>
    <glyph d="M174 567C174 567 173 567 171 567 166 567 164 568 163 571l-8 37C152 621 150 633 147 646 144 659 140 670 136 681 131 691 126 699 120 706 113 712 106 715 97 715 88 715 78 708 67 694 55 680 47 660 44 635l0-1C44 629 44 624 44 619 43 614 43 608 43 603 42 594 42 585 42 576 42 567 42 559 42 550 42 545 42 539 42 534 41 529 41 523 41 517l0-87C41 411 41 393 41 374 40 355 40 337 40 318 40 291 40 264 41 237 42 210 43 184 44 159 45 144 45 131 46 118 47 105 48 91 51 77 55 52 61 34 70 25 79 15 88 10 97 10 106 10 117 15 129 24 140 33 149 48 154 67 156 72 157 78 158 87 159 96 159 105 160 114l0 1C161 124 161 131 162 137 163 143 164 146 167 147 174 147 178 144 179 137 180 130 181 123 181 116 181 78 174 47 159 24 144 1 124-11 99-11 87-11 76-6 67 3 57 12 49 24 43 41 36 57 31 76 28 98 24 120 22 144 22 170 22 188 22 206 22 224 22 242 22 260 21 278l-2 143 0 1C18 427 18 433 18 438 18 443 18 448 18 453 18 468 18 484 19 500 19 516 19 532 20 548 21 559 21 570 22 580 22 590 22 600 22 611 24 686 47 727 91 734l7 0C104 734 110 734 115 733 120 732 125 729 130 726 136 721 142 713 148 703 154 693 159 682 164 670 169 657 173 644 176 631 179 618 180 605 180 593 180 588 180 583 179 580 178 577 176 572 174 567M93 816C94 817 96 817 98 817 100 817 102 817 103 817 108 817 112 814 114 809 116 804 117 799 117 795 117 791 116 788 113 785 110 782 105 780 100 780 95 780 91 781 88 784 84 787 82 791 82 797 82 802 83 806 85 809 87 812 90 814 93 816z" unicode="Ċ"></glyph>
    <glyph d="M201 136C201 115 198 95 193 78 187 60 179 44 168 29l0-1C161 17 153 9 142 5 131 0 118-2 103-2 97-2 94-2 93-1l0 1C92-1 89-2 83-2 77-2 70-2 63-2 56-2 49-2 43-2 37-3 34-3 33-4 33-3 33-2 34-1 34 0 34 2 34 6l0 19C34 33 34 43 34 54 33 65 33 79 33 94 32 109 32 128 32 149 31 170 31 194 31 221 31 252 31 286 32 323 33 359 34 399 35 443l0 36C35 488 35 496 35 504 34 511 34 519 34 526l0 41C34 603 34 633 35 656 35 679 34 700 32 717 33 718 37 719 42 719 47 719 53 719 60 719 62 719 64 719 66 719 68 719 71 719 76 719 80 719 86 719 93 719 100 719 110 719 123 720 123 719 125 719 128 719 131 718 133 718 135 717 179 702 201 653 202 568 203 543 203 520 203 500 203 480 203 462 203 446l0-56C202 367 201 344 201 322 201 300 201 279 201 260M110 699C109 699 108 699 107 700 106 700 105 700 104 700 90 700 73 697 54 692l0-10C55 655 56 629 57 606 57 582 57 556 57 527l0-53C57 460 57 447 57 435 56 422 56 410 56 397l0-63C56 325 56 312 55 296 54 280 54 265 54 252 54 249 54 246 55 243 55 240 55 238 55 235l2-216C61 18 65 17 68 17 71 17 80 17 93 18 101 18 113 19 128 22l0 1C143 28 155 44 165 71 175 98 180 129 180 166l0 154C180 345 181 369 182 394 183 419 183 443 183 468 183 529 181 575 178 604 174 633 169 653 162 663 147 684 132 696 118 699z" unicode="D"></glyph>
    <glyph d="M201 136C201 115 198 95 193 78 187 60 179 44 168 29l0-1C161 17 153 9 142 5 131 0 118-2 103-2 97-2 94-2 93-1l0 1C92-1 89-2 83-2 77-2 70-2 63-2 56-2 49-2 43-2 37-3 34-3 33-4 33-3 33-2 34-1 34 0 34 2 34 6l0 19C34 33 34 43 34 54 33 65 33 79 33 94 32 109 32 128 32 149 31 170 31 194 31 221 31 252 31 286 32 323 33 359 34 399 35 443l0 36C35 488 35 496 35 504 34 511 34 519 34 526l0 41C34 603 34 633 35 656 35 679 34 700 32 717 33 718 37 719 42 719 47 719 53 719 60 719 62 719 64 719 66 719 68 719 71 719 76 719 80 719 86 719 93 719 100 719 110 719 123 720 123 719 125 719 128 719 131 718 133 718 135 717 179 702 201 653 202 568 203 543 203 520 203 500 203 480 203 462 203 446l0-56C202 367 201 344 201 322 201 300 201 279 201 260M110 699C109 699 108 699 107 700 106 700 105 700 104 700 90 700 73 697 54 692l0-10C55 655 56 629 57 606 57 582 57 556 57 527l0-53C57 460 57 447 57 435 56 422 56 410 56 397l0-63C56 325 56 312 55 296 54 280 54 265 54 252 54 249 54 246 55 243 55 240 55 238 55 235l2-216C61 18 65 17 68 17 71 17 80 17 93 18 101 18 113 19 128 22l0 1C143 28 155 44 165 71 175 98 180 129 180 166l0 154C180 345 181 369 182 394 183 419 183 443 183 468 183 529 181 575 178 604 174 633 169 653 162 663 147 684 132 696 118 699M91 790C81 800 73 808 66 815 59 821 53 830 46 841 47 846 49 848 53 848l3 0 10-5C75 834 83 827 89 820 95 813 103 805 112 796 117 802 121 807 125 811 128 814 132 817 135 820 138 823 142 826 146 829 149 832 154 837 159 843 162 846 166 848 171 848 175 848 177 847 177 844 177 842 177 841 176 840 172 833 168 828 165 825 162 821 159 818 156 815 153 812 149 809 146 806 142 803 138 798 134 792 131 788 127 784 122 780 117 775 114 773 113 773 110 773 106 775 103 779 99 782 95 786 91 790z" unicode="Ď"></glyph>
    <glyph d="M201 136C201 115 199 97 194 80 189 63 182 48 174 36 165 24 155 15 144 8 132 1 120-2 107-2 106-2 104-2 102-2 100-2 97-2 93-2 89-2 83-2 76-2 68-3 57-3 44-3 37-3 34-2 34 1l0 4C34 6 34 9 35 12 35 15 35 19 35 25 35 31 35 38 35 47 35 56 35 65 34 75 32 111 31 160 31 221 31 237 31 254 31 272 31 290 31 309 32 328l0 10C23 338 16 339 11 340 6 341 4 347 3 356l31 0 0 10C34 374 34 383 35 392 35 401 35 410 35 419 36 429 36 439 36 450 36 460 36 470 36 479l0 38C36 564 36 604 36 637 35 669 33 696 30 717 32 718 36 719 41 719 46 719 53 719 60 719 63 719 68 719 74 719 79 718 90 718 106 719 108 720 111 720 114 720 117 720 120 720 123 720 128 719 132 719 135 719 138 718 143 717 149 714 162 703 172 690 179 675 186 660 192 641 195 620 198 598 201 573 202 544 203 515 203 483 203 446 203 429 203 414 203 401 203 388 203 375 202 364 202 357 202 348 202 337 201 326 201 316 201 309M111 699C110 699 109 699 108 700 107 700 105 700 104 700 91 700 74 697 54 692l0-10C55 655 56 629 57 606 57 582 57 556 57 527l0-53C57 464 57 454 57 444 56 434 56 424 56 415l0-61 12 0C71 354 74 354 76 354 78 354 81 354 84 355l31 3C124 358 132 357 138 356 144 354 147 347 148 335 147 335 147 335 146 334l-1-2C138 334 127 336 112 337 96 338 79 338 60 338l-4 0 0-10C56 315 56 300 56 284 56 268 56 255 57 244l0-225C60 16 65 15 72 15 78 15 83 15 88 15l12 0C124 20 144 34 159 58 174 82 181 118 181 166l0 123C181 298 181 307 181 316 180 325 180 334 180 343 180 353 180 363 181 374 181 385 181 395 182 405 183 416 183 426 184 436 184 446 184 457 184 468 184 500 184 527 183 550 182 573 180 592 178 607 176 622 174 634 171 643 168 652 165 658 162 663 155 674 147 683 140 689 132 694 125 698 118 699z" unicode="Đ"></glyph>
    <glyph d="M145 723C148 723 153 723 158 723 163 722 167 722 171 721 175 718 177 716 177 715 176 714 177 711 178 707 178 704 175 702 168 702 159 702 151 703 144 704 136 705 128 706 121 706 110 706 99 706 88 706 77 705 65 704 53 703l0-12C53 643 53 595 52 548 51 500 50 452 50 404l-2-13C57 391 66 391 77 390 88 389 98 389 107 389l10 0C124 389 128 385 129 377l0-2C129 374 126 373 120 372l-14 0C103 373 100 373 97 373 94 373 90 373 87 373 82 373 76 373 69 373 62 372 55 372 50 371l0-9C49 353 49 343 49 334 49 325 49 315 49 305l0-38C49 260 49 254 50 247 50 240 50 233 50 226l0-12-1-84C49 127 49 123 50 118 50 112 50 99 50 79l0-62C55 16 62 15 70 15 78 14 85 14 91 14 98 14 106 15 113 17 120 18 128 19 137 19 143 19 148 18 152 15 155 12 157 7 157 0l0-1-20 1C134 0 130 0 126 0 122-1 117-1 111-1 105-2 98-2 90-2 81-3 71-3 59-2l-9 0-4 0C42-2 39-1 36 2 33 5 32 13 32 26 33 47 34 69 33 92 32 115 32 140 32 167 32 186 32 205 32 224 31 243 31 263 31 282l0 84C31 385 31 401 32 415 32 428 32 441 33 452 33 463 33 474 34 485 34 495 34 506 34 519l0 22C34 562 34 578 35 591 35 603 35 614 34 624l0 1C33 634 33 644 33 655 32 665 32 678 32 693l0 5C32 700 32 702 31 705 30 708 30 710 31 713 32 716 33 718 36 720 39 721 43 722 49 722 52 722 56 722 59 722 62 721 66 721 70 721l15 0C100 721 112 721 122 722 132 723 140 723 145 723z" unicode="E"></glyph>
    <glyph d="M145 723C148 723 153 723 158 723 163 722 167 722 171 721 175 718 177 716 177 715 176 714 177 711 178 707 178 704 175 702 168 702 159 702 151 703 144 704 136 705 128 706 121 706 110 706 99 706 88 706 77 705 65 704 53 703l0-12C53 643 53 595 52 548 51 500 50 452 50 404l-2-13C57 391 66 391 77 390 88 389 98 389 107 389l10 0C124 389 128 385 129 377l0-2C129 374 126 373 120 372l-14 0C103 373 100 373 97 373 94 373 90 373 87 373 82 373 76 373 69 373 62 372 55 372 50 371l0-9C49 353 49 343 49 334 49 325 49 315 49 305l0-38C49 260 49 254 50 247 50 240 50 233 50 226l0-12-1-84C49 127 49 123 50 118 50 112 50 99 50 79l0-62C55 16 62 15 70 15 78 14 85 14 91 14 98 14 106 15 113 17 120 18 128 19 137 19 143 19 148 18 152 15 155 12 157 7 157 0l0-1-20 1C134 0 130 0 126 0 122-1 117-1 111-1 105-2 98-2 90-2 81-3 71-3 59-2l-9 0-4 0C42-2 39-1 36 2 33 5 32 13 32 26 33 47 34 69 33 92 32 115 32 140 32 167 32 186 32 205 32 224 31 243 31 263 31 282l0 84C31 385 31 401 32 415 32 428 32 441 33 452 33 463 33 474 34 485 34 495 34 506 34 519l0 22C34 562 34 578 35 591 35 603 35 614 34 624l0 1C33 634 33 644 33 655 32 665 32 678 32 693l0 5C32 700 32 702 31 705 30 708 30 710 31 713 32 716 33 718 36 720 39 721 43 722 49 722 52 722 56 722 59 722 62 721 66 721 70 721l15 0C100 721 112 721 122 722 132 723 140 723 145 723M161 853C161 849 159 845 155 840 151 835 146 830 141 825 136 819 130 813 124 806 118 799 113 791 108 782 107 780 105 779 103 779 101 778 99 778 98 778 95 778 94 780 93 783 92 786 92 788 93 790 93 790 95 793 98 799 101 804 104 811 109 818 113 825 117 832 122 839 127 846 131 850 135 853 140 857 146 859 151 859 153 859 155 858 158 857 160 856 161 854 161 853z" unicode="É"></glyph>
    <glyph d="M145 723C148 723 153 723 158 723 163 722 167 722 171 721 175 718 177 716 177 715 176 714 177 711 178 707 178 704 175 702 168 702 159 702 151 703 144 704 136 705 128 706 121 706 110 706 99 706 88 706 77 705 65 704 53 703l0-12C53 643 53 595 52 548 51 500 50 452 50 404l-2-13C57 391 66 391 77 390 88 389 98 389 107 389l10 0C124 389 128 385 129 377l0-2C129 374 126 373 120 372l-14 0C103 373 100 373 97 373 94 373 90 373 87 373 82 373 76 373 69 373 62 372 55 372 50 371l0-9C49 353 49 343 49 334 49 325 49 315 49 305l0-38C49 260 49 254 50 247 50 240 50 233 50 226l0-12-1-84C49 127 49 123 50 118 50 112 50 99 50 79l0-62C55 16 62 15 70 15 78 14 85 14 91 14 98 14 106 15 113 17 120 18 128 19 137 19 143 19 148 18 152 15 155 12 157 7 157 0l0-1-20 1C134 0 130 0 126 0 122-1 117-1 111-1 105-2 98-2 90-2 81-3 71-3 59-2l-9 0-4 0C42-2 39-1 36 2 33 5 32 13 32 26 33 47 34 69 33 92 32 115 32 140 32 167 32 186 32 205 32 224 31 243 31 263 31 282l0 84C31 385 31 401 32 415 32 428 32 441 33 452 33 463 33 474 34 485 34 495 34 506 34 519l0 22C34 562 34 578 35 591 35 603 35 614 34 624l0 1C33 634 33 644 33 655 32 665 32 678 32 693l0 5C32 700 32 702 31 705 30 708 30 710 31 713 32 716 33 718 36 720 39 721 43 722 49 722 52 722 56 722 59 722 62 721 66 721 70 721l15 0C100 721 112 721 122 722 132 723 140 723 145 723M69 803C74 800 79 799 82 798 85 797 89 797 94 797 95 797 97 797 102 797 106 796 111 797 117 799 122 800 127 803 132 808 137 813 140 820 142 830 143 838 146 842 152 842 156 842 158 839 158 833 158 818 153 804 142 792 131 780 113 774 90 774 83 774 76 776 69 780 62 783 55 788 50 794 45 799 40 805 37 812 34 819 32 825 32 831 32 836 35 839 40 839 43 839 45 838 47 835 48 832 50 829 51 825 52 821 54 817 57 813 60 809 64 806 69 803z" unicode="Ĕ"></glyph>
    <glyph d="M145 723C148 723 153 723 158 723 163 722 167 722 171 721 175 718 177 716 177 715 176 714 177 711 178 707 178 704 175 702 168 702 159 702 151 703 144 704 136 705 128 706 121 706 110 706 99 706 88 706 77 705 65 704 53 703l0-12C53 643 53 595 52 548 51 500 50 452 50 404l-2-13C57 391 66 391 77 390 88 389 98 389 107 389l10 0C124 389 128 385 129 377l0-2C129 374 126 373 120 372l-14 0C103 373 100 373 97 373 94 373 90 373 87 373 82 373 76 373 69 373 62 372 55 372 50 371l0-9C49 353 49 343 49 334 49 325 49 315 49 305l0-38C49 260 49 254 50 247 50 240 50 233 50 226l0-12-1-84C49 127 49 123 50 118 50 112 50 99 50 79l0-62C55 16 62 15 70 15 78 14 85 14 91 14 98 14 106 15 113 17 120 18 128 19 137 19 143 19 148 18 152 15 155 12 157 7 157 0l0-1-20 1C134 0 130 0 126 0 122-1 117-1 111-1 105-2 98-2 90-2 81-3 71-3 59-2l-9 0-4 0C42-2 39-1 36 2 33 5 32 13 32 26 33 47 34 69 33 92 32 115 32 140 32 167 32 186 32 205 32 224 31 243 31 263 31 282l0 84C31 385 31 401 32 415 32 428 32 441 33 452 33 463 33 474 34 485 34 495 34 506 34 519l0 22C34 562 34 578 35 591 35 603 35 614 34 624l0 1C33 634 33 644 33 655 32 665 32 678 32 693l0 5C32 700 32 702 31 705 30 708 30 710 31 713 32 716 33 718 36 720 39 721 43 722 49 722 52 722 56 722 59 722 62 721 66 721 70 721l15 0C100 721 112 721 122 722 132 723 140 723 145 723M73 790C63 800 55 808 48 815 41 821 35 830 28 841 29 846 31 848 35 848l3 0 10-5C57 834 65 827 71 820 77 813 85 805 94 796 99 802 103 807 107 811 110 814 114 817 117 820 120 823 124 826 128 829 131 832 136 837 141 843 144 846 148 848 153 848 157 848 159 847 159 844 159 842 159 841 158 840 154 833 150 828 147 825 144 821 141 818 138 815 135 812 131 809 128 806 124 803 120 798 116 792 113 788 109 784 104 780 99 775 96 773 95 773 92 773 88 775 85 779 81 782 77 786 73 790z" unicode="Ě"></glyph>
    <glyph d="M145 723C148 723 153 723 158 723 163 722 167 722 171 721 175 718 177 716 177 715 176 714 177 711 178 707 178 704 175 702 168 702 159 702 151 703 144 704 136 705 128 706 121 706 110 706 99 706 88 706 77 705 65 704 53 703l0-12C53 643 53 595 52 548 51 500 50 452 50 404l-2-13C57 391 66 391 77 390 88 389 98 389 107 389l10 0C124 389 128 385 129 377l0-2C129 374 126 373 120 372l-14 0C103 373 100 373 97 373 94 373 90 373 87 373 82 373 76 373 69 373 62 372 55 372 50 371l0-9C49 353 49 343 49 334 49 325 49 315 49 305l0-38C49 260 49 254 50 247 50 240 50 233 50 226l0-12-1-84C49 127 49 123 50 118 50 112 50 99 50 79l0-62C55 16 62 15 70 15 78 14 85 14 91 14 98 14 106 15 113 17 120 18 128 19 137 19 143 19 148 18 152 15 155 12 157 7 157 0l0-1-20 1C134 0 130 0 126 0 122-1 117-1 111-1 105-2 98-2 90-2 81-3 71-3 59-2l-9 0-4 0C42-2 39-1 36 2 33 5 32 13 32 26 33 47 34 69 33 92 32 115 32 140 32 167 32 186 32 205 32 224 31 243 31 263 31 282l0 84C31 385 31 401 32 415 32 428 32 441 33 452 33 463 33 474 34 485 34 495 34 506 34 519l0 22C34 562 34 578 35 591 35 603 35 614 34 624l0 1C33 634 33 644 33 655 32 665 32 678 32 693l0 5C32 700 32 702 31 705 30 708 30 710 31 713 32 716 33 718 36 720 39 721 43 722 49 722 52 722 56 722 59 722 62 721 66 721 70 721l15 0C100 721 112 721 122 722 132 723 140 723 145 723M76 842C80 847 84 852 88 855 92 858 96 860 99 860 101 860 104 858 109 853 114 848 118 844 121 840 125 834 129 830 133 827 136 824 140 821 143 818 146 815 149 811 152 808 155 804 159 799 163 792 164 791 164 790 164 788 164 785 162 783 158 783 154 783 150 785 146 789l-1 0C140 795 135 800 132 803 128 806 125 809 122 812 119 815 115 818 112 821 108 824 103 829 98 836 89 827 81 819 75 812 68 805 60 798 51 789l-10-5C40 784 39 784 38 783 35 783 32 786 31 791 38 802 45 811 52 816 59 821 67 830 75 841z" unicode="Ê"></glyph>
    <glyph d="M145 723C148 723 153 723 158 723 163 722 167 722 171 721 175 718 177 716 177 715 176 714 177 711 178 707 178 704 175 702 168 702 159 702 151 703 144 704 136 705 128 706 121 706 110 706 99 706 88 706 77 705 65 704 53 703l0-12C53 643 53 595 52 548 51 500 50 452 50 404l-2-13C57 391 66 391 77 390 88 389 98 389 107 389l10 0C124 389 128 385 129 377l0-2C129 374 126 373 120 372l-14 0C103 373 100 373 97 373 94 373 90 373 87 373 82 373 76 373 69 373 62 372 55 372 50 371l0-9C49 353 49 343 49 334 49 325 49 315 49 305l0-38C49 260 49 254 50 247 50 240 50 233 50 226l0-12-1-84C49 127 49 123 50 118 50 112 50 99 50 79l0-62C55 16 62 15 70 15 78 14 85 14 91 14 98 14 106 15 113 17 120 18 128 19 137 19 143 19 148 18 152 15 155 12 157 7 157 0l0-1-20 1C134 0 130 0 126 0 122-1 117-1 111-1 105-2 98-2 90-2 81-3 71-3 59-2l-9 0-4 0C42-2 39-1 36 2 33 5 32 13 32 26 33 47 34 69 33 92 32 115 32 140 32 167 32 186 32 205 32 224 31 243 31 263 31 282l0 84C31 385 31 401 32 415 32 428 32 441 33 452 33 463 33 474 34 485 34 495 34 506 34 519l0 22C34 562 34 578 35 591 35 603 35 614 34 624l0 1C33 634 33 644 33 655 32 665 32 678 32 693l0 5C32 700 32 702 31 705 30 708 30 710 31 713 32 716 33 718 36 720 39 721 43 722 49 722 52 722 56 722 59 722 62 721 66 721 70 721l15 0C100 721 112 721 122 722 132 723 140 723 145 723M151 815C154 813 156 810 156 806 156 794 150 788 137 788 134 788 131 790 128 793 125 796 123 799 123 803l0 4C127 814 132 817 139 817 140 817 142 817 144 817 145 817 148 816 151 815M46 820C55 820 62 818 65 815 68 811 69 805 69 797 69 794 68 791 66 788 64 784 60 782 55 782 40 782 33 788 33 801 33 804 34 807 35 810 38 817 41 820 46 820z" unicode="Ë"></glyph>
    <glyph d="M145 723C148 723 153 723 158 723 163 722 167 722 171 721 175 718 177 716 177 715 176 714 177 711 178 707 178 704 175 702 168 702 159 702 151 703 144 704 136 705 128 706 121 706 110 706 99 706 88 706 77 705 65 704 53 703l0-12C53 643 53 595 52 548 51 500 50 452 50 404l-2-13C57 391 66 391 77 390 88 389 98 389 107 389l10 0C124 389 128 385 129 377l0-2C129 374 126 373 120 372l-14 0C103 373 100 373 97 373 94 373 90 373 87 373 82 373 76 373 69 373 62 372 55 372 50 371l0-9C49 353 49 343 49 334 49 325 49 315 49 305l0-38C49 260 49 254 50 247 50 240 50 233 50 226l0-12-1-84C49 127 49 123 50 118 50 112 50 99 50 79l0-62C55 16 62 15 70 15 78 14 85 14 91 14 98 14 106 15 113 17 120 18 128 19 137 19 143 19 148 18 152 15 155 12 157 7 157 0l0-1-20 1C134 0 130 0 126 0 122-1 117-1 111-1 105-2 98-2 90-2 81-3 71-3 59-2l-9 0-4 0C42-2 39-1 36 2 33 5 32 13 32 26 33 47 34 69 33 92 32 115 32 140 32 167 32 186 32 205 32 224 31 243 31 263 31 282l0 84C31 385 31 401 32 415 32 428 32 441 33 452 33 463 33 474 34 485 34 495 34 506 34 519l0 22C34 562 34 578 35 591 35 603 35 614 34 624l0 1C33 634 33 644 33 655 32 665 32 678 32 693l0 5C32 700 32 702 31 705 30 708 30 710 31 713 32 716 33 718 36 720 39 721 43 722 49 722 52 722 56 722 59 722 62 721 66 721 70 721l15 0C100 721 112 721 122 722 132 723 140 723 145 723M88 816C89 817 91 817 93 817 95 817 97 817 98 817 103 817 107 814 109 809 111 804 112 799 112 795 112 791 111 788 108 785 105 782 100 780 95 780 90 780 86 781 83 784 79 787 77 791 77 797 77 802 78 806 80 809 82 812 85 814 88 816z" unicode="Ė"></glyph>
    <glyph d="M145 723C148 723 153 723 158 723 163 722 167 722 171 721 175 718 177 716 177 715 176 714 177 711 178 707 178 704 175 702 168 702 159 702 151 703 144 704 136 705 128 706 121 706 110 706 99 706 88 706 77 705 65 704 53 703l0-12C53 643 53 595 52 548 51 500 50 452 50 404l-2-13C57 391 66 391 77 390 88 389 98 389 107 389l10 0C124 389 128 385 129 377l0-2C129 374 126 373 120 372l-14 0C103 373 100 373 97 373 94 373 90 373 87 373 82 373 76 373 69 373 62 372 55 372 50 371l0-9C49 353 49 343 49 334 49 325 49 315 49 305l0-38C49 260 49 254 50 247 50 240 50 233 50 226l0-12-1-84C49 127 49 123 50 118 50 112 50 99 50 79l0-62C55 16 62 15 70 15 78 14 85 14 91 14 98 14 106 15 113 17 120 18 128 19 137 19 143 19 148 18 152 15 155 12 157 7 157 0l0-1-20 1C134 0 130 0 126 0 122-1 117-1 111-1 105-2 98-2 90-2 81-3 71-3 59-2l-9 0-4 0C42-2 39-1 36 2 33 5 32 13 32 26 33 47 34 69 33 92 32 115 32 140 32 167 32 186 32 205 32 224 31 243 31 263 31 282l0 84C31 385 31 401 32 415 32 428 32 441 33 452 33 463 33 474 34 485 34 495 34 506 34 519l0 22C34 562 34 578 35 591 35 603 35 614 34 624l0 1C33 634 33 644 33 655 32 665 32 678 32 693l0 5C32 700 32 702 31 705 30 708 30 710 31 713 32 716 33 718 36 720 39 721 43 722 49 722 52 722 56 722 59 722 62 721 66 721 70 721l15 0C100 721 112 721 122 722 132 723 140 723 145 723M100 789C101 788 101 786 101 785 101 784 101 783 100 782 99 781 96 781 89 781l-4 3C82 785 79 787 77 788 75 789 73 791 71 794 68 797 65 800 61 805 56 809 52 813 48 818 43 822 40 826 37 830 34 834 32 837 32 840 32 843 33 845 34 847 35 848 39 849 44 849 47 849 50 849 52 848 53 847 56 845 59 842l1-1C67 831 74 822 81 815 87 807 93 798 100 789z" unicode="È"></glyph>
    <glyph d="M145 723C148 723 153 723 158 723 163 722 167 722 171 721 175 718 177 716 177 715 176 714 177 711 178 707 178 704 175 702 168 702 159 702 151 703 144 704 136 705 128 706 121 706 110 706 99 706 88 706 77 705 65 704 53 703l0-12C53 643 53 595 52 548 51 500 50 452 50 404l-2-13C57 391 66 391 77 390 88 389 98 389 107 389l10 0C124 389 128 385 129 377l0-2C129 374 126 373 120 372l-14 0C103 373 100 373 97 373 94 373 90 373 87 373 82 373 76 373 69 373 62 372 55 372 50 371l0-9C49 353 49 343 49 334 49 325 49 315 49 305l0-38C49 260 49 254 50 247 50 240 50 233 50 226l0-12-1-84C49 127 49 123 50 118 50 112 50 99 50 79l0-62C55 16 62 15 70 15 78 14 85 14 91 14 98 14 106 15 113 17 120 18 128 19 137 19 143 19 148 18 152 15 155 12 157 7 157 0l0-1-20 1C134 0 130 0 126 0 122-1 117-1 111-1 105-2 98-2 90-2 81-3 71-3 59-2l-9 0-4 0C42-2 39-1 36 2 33 5 32 13 32 26 33 47 34 69 33 92 32 115 32 140 32 167 32 186 32 205 32 224 31 243 31 263 31 282l0 84C31 385 31 401 32 415 32 428 32 441 33 452 33 463 33 474 34 485 34 495 34 506 34 519l0 22C34 562 34 578 35 591 35 603 35 614 34 624l0 1C33 634 33 644 33 655 32 665 32 678 32 693l0 5C32 700 32 702 31 705 30 708 30 710 31 713 32 716 33 718 36 720 39 721 43 722 49 722 52 722 56 722 59 722 62 721 66 721 70 721l15 0C100 721 112 721 122 722 132 723 140 723 145 723M149 800C150 798 152 796 153 795 154 794 154 791 154 788 154 786 154 785 153 785 152 784 151 783 150 781 145 782 135 783 120 784 105 784 88 784 70 784l-23 0C42 784 39 785 38 787 37 788 36 791 36 794 36 795 37 797 40 799 43 801 48 802 55 802 60 802 70 802 84 802 97 802 110 802 121 803 132 803 142 802 149 800z" unicode="Ē"></glyph>
    <glyph d="M145 723C148 723 153 723 158 723 163 722 167 722 171 721 175 718 177 716 177 715 176 714 177 711 178 707 178 704 175 702 168 702 159 702 151 703 144 704 136 705 128 706 121 706 110 706 99 706 88 706 77 705 65 704 53 703l0-12C53 643 53 595 52 548 51 500 50 452 50 404l-2-13C57 391 66 391 77 390 88 389 98 389 107 389l10 0C124 389 128 385 129 377l0-2C129 374 126 373 120 372l-14 0C103 373 100 373 97 373 94 373 90 373 87 373 82 373 76 373 69 373 62 372 55 372 50 371l0-9C49 353 49 343 49 334 49 325 49 315 49 305l0-38C49 260 49 254 50 247 50 240 50 233 50 226l0-12-1-84C49 127 49 123 50 118 50 112 50 99 50 79l0-62C55 16 62 15 70 15 78 14 85 14 91 14 98 14 106 15 113 17 120 18 128 19 137 19 143 19 148 18 152 15 155 12 157 7 157 0l0-1-20 1C134 0 130 0 126 0 122-1 117-1 111-1 105-2 98-2 90-2 81-3 71-3 59-2l-9 0-4 0C42-2 39-1 36 2 33 5 32 13 32 26 33 47 34 69 33 92 32 115 32 140 32 167 32 186 32 205 32 224 31 243 31 263 31 282l0 84C31 385 31 401 32 415 32 428 32 441 33 452 33 463 33 474 34 485 34 495 34 506 34 519l0 22C34 562 34 578 35 591 35 603 35 614 34 624l0 1C33 634 33 644 33 655 32 665 32 678 32 693l0 5C32 700 32 702 31 705 30 708 30 710 31 713 32 716 33 718 36 720 39 721 43 722 49 722 52 722 56 722 59 722 62 721 66 721 70 721l15 0C100 721 112 721 122 722 132 723 140 723 145 723M151 4C133-10 120-21 113-29 106-38 101-50 99-66 101-71 105-76 110-81 115-86 120-88 126-88 129-87 132-86 135-83 138-80 142-77 146-74 149-71 152-68 155-65 158-62 160-61 161-61 165-61 168-64 170-70 163-83 155-92 148-96 140-100 132-103 125-104 115-104 105-100 95-92 84-83 79-76 78-71 77-66 77-62 77-61 77-57 77-54 78-51 79-49 81-45 84-39 87-34 90-29 93-26 96-23 99-21 103-18 106-15 110-12 115-9 120-6 125-2 132 4z" unicode="Ę"></glyph>
    <glyph d="M195 136C195 115 193 96 188 79 183 62 176 47 167 35 158 23 148 14 137 8 125 1 113-2 100-2l4 0-5 0C97-2 94-2 91-2 87-2 82-2 77-1 76-2 73-2 70-2 66-3 62-3 57-3 52-3 48-3 45-3 41-3 39-3 38-3 31-3 28-2 28 1l0 4C28 6 28 9 29 12 29 15 29 19 29 25 29 44 29 70 28 104 27 138 26 180 26 231 26 250 26 271 26 292 26 313 26 336 27 359l0 10C14 369 6 371 4 374 2 377 1 383 0 392 6 391 11 391 16 391 21 391 25 391 28 391l0 10C28 408 28 416 29 423 30 430 30 436 30 443l0 74C30 564 30 604 30 637 29 670 28 697 25 718 28 721 33 722 41 722 44 722 48 722 52 722 56 721 60 721 63 721l20 0C88 721 94 721 100 722 106 723 112 723 118 723 137 723 152 715 163 700 174 685 182 664 187 639 192 614 195 584 196 551 197 518 198 483 198 446 198 431 198 418 198 407 197 395 197 384 197 374 196 363 196 353 196 343 195 332 195 321 195 309M140 395C143 388 144 379 144 370 144 367 143 364 142 361l0 2C135 365 124 367 109 368 93 369 76 369 58 369l-8 0 0-35C50 321 50 311 50 302 50 293 50 283 51 272l0-254C52 17 54 17 56 17l11 0C70 17 74 17 78 17 82 16 88 15 95 14 118 19 138 33 153 58 168 82 175 118 175 166l0 123C175 298 175 307 175 316 174 325 174 334 174 343 174 364 175 385 176 406 177 426 178 447 178 468 178 501 178 528 177 551 176 573 174 592 172 607 170 622 168 633 165 642 162 651 159 658 156 663 150 671 146 678 144 683 141 688 138 691 134 694 129 697 123 699 114 700 105 701 91 701 73 701 65 701 57 700 48 698l0-16C48 655 49 629 50 606 51 582 52 556 51 527l0-53C51 467 51 461 51 454 50 447 50 441 50 435l0-45 15 0C68 390 71 390 73 390 75 390 78 390 82 391l29 3C118 394 124 394 129 393 134 392 137 391 140 390z" unicode="Ð"></glyph>
    <glyph d="M119 307C116 307 114 307 111 307 108 306 104 306 99 306l-46 0 0-65C53 196 54 159 56 130 58 100 61 76 66 59 70 41 76 28 83 21 90 14 98 10 108 10 121 10 133 19 145 36 156 53 166 83 173 126l0 1C174 132 175 137 176 142 176 146 176 148 177 149 184 149 189 146 190 139 191 132 192 124 192 117 192 78 184 47 169 24 154 1 134-11 109-11 88-11 72-3 62 14 52 30 45 52 41 80 37 108 35 141 35 178 34 215 33 255 31 297l0 9-12 0C16 306 12 306 9 306 6 305 1 305-4 305-3 310-3 314-2 315-2 316-1 319 2 324l12 0C16 324 18 324 21 325 24 325 27 325 30 325l0 11C30 346 30 357 30 368 29 379 29 389 29 400l0 10C24 409 19 409 14 409 9 409 3 409-4 409-3 421 0 428 5 430 9 431 16 432 27 432l0 11C27 476 27 510 27 545 26 579 28 610 32 638 36 666 43 690 53 709 63 728 78 739 99 742l7 0C113 742 119 742 125 741 131 740 137 737 142 734 148 729 154 721 161 711 167 700 173 689 178 676 183 663 187 650 190 637 193 624 195 611 195 600 195 595 194 590 193 583 191 576 188 573 185 573l-7 1C177 592 175 607 172 619 169 630 164 645 157 663l-4 16C152 683 150 687 147 692 144 697 141 701 138 706 135 711 131 715 126 718 121 721 116 722 111 722 93 722 80 714 71 698 62 682 56 663 51 642l0-2C51 633 51 625 50 618 49 610 48 602 48 595l0-13C48 568 48 555 49 544 50 533 50 520 50 507l0-75 95 0C150 432 154 431 156 428 157 425 158 423 158 420 158 415 156 412 151 411 146 410 141 409 136 409 133 409 131 409 129 410 127 410 125 410 123 410l-8 0C102 410 92 410 85 411 78 412 73 412 68 412l-17 0 0-87 51 0C109 325 115 325 118 326 121 327 123 327 126 327 129 327 132 327 135 326 137 325 139 325 141 325 143 324 144 324 144 323 144 322 144 320 143 315 142 310 142 308 141 307z" unicode="€"></glyph>
    <glyph d="M149 723C152 723 155 723 159 724 162 724 166 724 169 724 174 724 178 724 182 723 185 722 187 719 187 716 187 715 186 713 184 710 182 707 180 705 178 704 169 705 160 707 153 708 146 709 138 709 131 709 124 709 117 708 111 707 105 706 93 705 76 705 71 705 67 705 63 705 58 705 54 705 49 706 54 646 56 591 55 540 54 489 54 439 54 388l0-13C57 374 59 374 62 374 64 374 66 374 68 374 77 374 86 375 95 376 104 377 113 377 122 377 127 377 129 376 130 374 130 372 130 370 130 367 130 363 129 361 128 360 126 359 122 359 117 359l-41 0C71 359 66 359 63 359 59 359 56 359 54 358l-1-17C52 316 51 290 51 265 51 240 51 214 50 188 50 161 50 135 51 110 52 85 53 59 54 30l-3-34C41-4 35 2 33 14 31 25 30 38 30 52 30 113 31 176 32 243 33 309 34 373 34 436 34 447 34 459 34 470 33 481 33 493 33 504l0 97C33 606 33 612 34 618 34 623 34 630 34 637 34 642 34 649 33 658 32 667 31 675 30 684 29 692 28 699 27 706 26 712 26 716 26 717 26 720 28 722 32 723 36 724 40 724 44 724 51 724 58 724 65 723 72 722 80 722 87 722 89 722 93 722 98 722 103 722 109 722 116 723 122 723 128 723 134 723 140 723 145 723 149 723z" unicode="F"></glyph>
    <glyph d="M111 722C126 711 138 694 145 672 152 650 158 623 162 591 162 578 160 566 155 557 150 560 146 563 145 565 143 566 141 569 140 572l0 13C140 588 140 590 141 593 141 595 141 598 141 601 141 606 140 613 139 620 138 627 135 636 131 649l-7 16C117 681 110 693 105 702 99 710 91 714 80 714 74 714 69 711 65 706 60 700 57 693 55 685 52 677 50 669 49 662 48 654 47 648 46 644 45 635 44 627 44 619 44 610 44 601 44 590l0-43C44 539 44 531 45 522 45 513 45 505 45 496 45 496 45 492 45 485 44 477 44 466 43 453 42 440 42 424 42 407 41 389 41 370 41 350 41 277 42 219 45 175 47 130 51 96 56 72 61 47 67 31 75 23 82 15 91 11 102 11 105 11 109 11 114 12 119 13 123 14 126 17 131 21 136 27 140 36 143 45 146 54 148 64 150 74 151 84 152 94 153 104 153 113 153 120 153 123 153 127 153 130 153 133 153 138 153 143 152 148 152 154 152 163 152 171 152 182 152 196 152 211 152 225 151 239 150 253 149 264 148 273l0 11C148 294 148 300 148 303 147 305 144 307 139 310 138 310 138 310 138 311 138 311 138 311 137 311l-29-7-13-6C86 298 82 303 82 312 82 317 86 321 93 324 100 326 107 328 116 329 125 330 133 330 142 331 150 331 155 331 157 332 162 323 166 309 168 292 170 275 171 254 171 231 171 220 171 209 172 198 172 187 172 176 172 165 172 160 172 154 173 145 173 136 173 128 172 123 172 113 171 102 170 90 169 78 166 66 163 55 160 43 156 32 151 22 146 12 139 4 132-1 129-3 125-4 120-5 115-6 109-7 104-7l-6 0C72-2 53 16 42 47 30 78 24 121 24 176l0 20C24 228 24 253 23 272 22 290 21 308 21 325l0 33 4 255 0 1 1 31C27 656 29 668 31 679 33 690 37 701 42 712 45 719 50 724 57 727 64 730 71 731 80 731 91 731 102 728 111 722z" unicode="G"></glyph>
    <glyph d="M111 722C126 711 138 694 145 672 152 650 158 623 162 591 162 578 160 566 155 557 150 560 146 563 145 565 143 566 141 569 140 572l0 13C140 588 140 590 141 593 141 595 141 598 141 601 141 606 140 613 139 620 138 627 135 636 131 649l-7 16C117 681 110 693 105 702 99 710 91 714 80 714 74 714 69 711 65 706 60 700 57 693 55 685 52 677 50 669 49 662 48 654 47 648 46 644 45 635 44 627 44 619 44 610 44 601 44 590l0-43C44 539 44 531 45 522 45 513 45 505 45 496 45 496 45 492 45 485 44 477 44 466 43 453 42 440 42 424 42 407 41 389 41 370 41 350 41 277 42 219 45 175 47 130 51 96 56 72 61 47 67 31 75 23 82 15 91 11 102 11 105 11 109 11 114 12 119 13 123 14 126 17 131 21 136 27 140 36 143 45 146 54 148 64 150 74 151 84 152 94 153 104 153 113 153 120 153 123 153 127 153 130 153 133 153 138 153 143 152 148 152 154 152 163 152 171 152 182 152 196 152 211 152 225 151 239 150 253 149 264 148 273l0 11C148 294 148 300 148 303 147 305 144 307 139 310 138 310 138 310 138 311 138 311 138 311 137 311l-29-7-13-6C86 298 82 303 82 312 82 317 86 321 93 324 100 326 107 328 116 329 125 330 133 330 142 331 150 331 155 331 157 332 162 323 166 309 168 292 170 275 171 254 171 231 171 220 171 209 172 198 172 187 172 176 172 165 172 160 172 154 173 145 173 136 173 128 172 123 172 113 171 102 170 90 169 78 166 66 163 55 160 43 156 32 151 22 146 12 139 4 132-1 129-3 125-4 120-5 115-6 109-7 104-7l-6 0C72-2 53 16 42 47 30 78 24 121 24 176l0 20C24 228 24 253 23 272 22 290 21 308 21 325l0 33 4 255 0 1 1 31C27 656 29 668 31 679 33 690 37 701 42 712 45 719 50 724 57 727 64 730 71 731 80 731 91 731 102 728 111 722M70 803C75 800 80 799 83 798 86 797 90 797 95 797 96 797 98 797 103 797 107 796 112 797 118 799 123 800 128 803 133 808 138 813 141 820 143 830 144 838 147 842 153 842 157 842 159 839 159 833 159 818 154 804 143 792 132 780 114 774 91 774 84 774 77 776 70 780 63 783 56 788 51 794 46 799 41 805 38 812 35 819 33 825 33 831 33 836 36 839 41 839 44 839 46 838 48 835 49 832 51 829 52 825 53 821 55 817 58 813 61 809 65 806 70 803z" unicode="Ğ"></glyph>
    <glyph d="M111 722C126 711 138 694 145 672 152 650 158 623 162 591 162 578 160 566 155 557 150 560 146 563 145 565 143 566 141 569 140 572l0 13C140 588 140 590 141 593 141 595 141 598 141 601 141 606 140 613 139 620 138 627 135 636 131 649l-7 16C117 681 110 693 105 702 99 710 91 714 80 714 74 714 69 711 65 706 60 700 57 693 55 685 52 677 50 669 49 662 48 654 47 648 46 644 45 635 44 627 44 619 44 610 44 601 44 590l0-43C44 539 44 531 45 522 45 513 45 505 45 496 45 496 45 492 45 485 44 477 44 466 43 453 42 440 42 424 42 407 41 389 41 370 41 350 41 277 42 219 45 175 47 130 51 96 56 72 61 47 67 31 75 23 82 15 91 11 102 11 105 11 109 11 114 12 119 13 123 14 126 17 131 21 136 27 140 36 143 45 146 54 148 64 150 74 151 84 152 94 153 104 153 113 153 120 153 123 153 127 153 130 153 133 153 138 153 143 152 148 152 154 152 163 152 171 152 182 152 196 152 211 152 225 151 239 150 253 149 264 148 273l0 11C148 294 148 300 148 303 147 305 144 307 139 310 138 310 138 310 138 311 138 311 138 311 137 311l-29-7-13-6C86 298 82 303 82 312 82 317 86 321 93 324 100 326 107 328 116 329 125 330 133 330 142 331 150 331 155 331 157 332 162 323 166 309 168 292 170 275 171 254 171 231 171 220 171 209 172 198 172 187 172 176 172 165 172 160 172 154 173 145 173 136 173 128 172 123 172 113 171 102 170 90 169 78 166 66 163 55 160 43 156 32 151 22 146 12 139 4 132-1 129-3 125-4 120-5 115-6 109-7 104-7l-6 0C72-2 53 16 42 47 30 78 24 121 24 176l0 20C24 228 24 253 23 272 22 290 21 308 21 325l0 33 4 255 0 1 1 31C27 656 29 668 31 679 33 690 37 701 42 712 45 719 50 724 57 727 64 730 71 731 80 731 91 731 102 728 111 722M72 842C76 847 80 852 84 855 88 858 92 860 95 860 97 860 100 858 105 853 110 848 114 844 117 840 121 834 125 830 129 827 132 824 136 821 139 818 142 815 145 811 148 808 151 804 155 799 159 792 160 791 160 790 160 788 160 785 158 783 154 783 150 783 146 785 142 789l-1 0C136 795 131 800 128 803 124 806 121 809 118 812 115 815 111 818 108 821 104 824 99 829 94 836 85 827 77 819 71 812 64 805 56 798 47 789l-10-5C36 784 35 784 34 783 31 783 28 786 27 791 34 802 41 811 48 816 55 821 63 830 71 841z" unicode="Ĝ"></glyph>
    <glyph d="M111 722C126 711 138 694 145 672 152 650 158 623 162 591 162 578 160 566 155 557 150 560 146 563 145 565 143 566 141 569 140 572l0 13C140 588 140 590 141 593 141 595 141 598 141 601 141 606 140 613 139 620 138 627 135 636 131 649l-7 16C117 681 110 693 105 702 99 710 91 714 80 714 74 714 69 711 65 706 60 700 57 693 55 685 52 677 50 669 49 662 48 654 47 648 46 644 45 635 44 627 44 619 44 610 44 601 44 590l0-43C44 539 44 531 45 522 45 513 45 505 45 496 45 496 45 492 45 485 44 477 44 466 43 453 42 440 42 424 42 407 41 389 41 370 41 350 41 277 42 219 45 175 47 130 51 96 56 72 61 47 67 31 75 23 82 15 91 11 102 11 105 11 109 11 114 12 119 13 123 14 126 17 131 21 136 27 140 36 143 45 146 54 148 64 150 74 151 84 152 94 153 104 153 113 153 120 153 123 153 127 153 130 153 133 153 138 153 143 152 148 152 154 152 163 152 171 152 182 152 196 152 211 152 225 151 239 150 253 149 264 148 273l0 11C148 294 148 300 148 303 147 305 144 307 139 310 138 310 138 310 138 311 138 311 138 311 137 311l-29-7-13-6C86 298 82 303 82 312 82 317 86 321 93 324 100 326 107 328 116 329 125 330 133 330 142 331 150 331 155 331 157 332 162 323 166 309 168 292 170 275 171 254 171 231 171 220 171 209 172 198 172 187 172 176 172 165 172 160 172 154 173 145 173 136 173 128 172 123 172 113 171 102 170 90 169 78 166 66 163 55 160 43 156 32 151 22 146 12 139 4 132-1 129-3 125-4 120-5 115-6 109-7 104-7l-6 0C72-2 53 16 42 47 30 78 24 121 24 176l0 20C24 228 24 253 23 272 22 290 21 308 21 325l0 33 4 255 0 1 1 31C27 656 29 668 31 679 33 690 37 701 42 712 45 719 50 724 57 727 64 730 71 731 80 731 91 731 102 728 111 722M89 816C90 817 92 817 94 817 96 817 98 817 99 817 104 817 108 814 110 809 112 804 113 799 113 795 113 791 112 788 109 785 106 782 101 780 96 780 91 780 87 781 84 784 80 787 78 791 78 797 78 802 79 806 81 809 83 812 86 814 89 816z" unicode="Ġ"></glyph>
    <glyph d="M181 722C184 704 187 686 188 667 189 648 190 626 190 603l0-70C190 518 190 504 190 489 189 474 189 458 189 442l0-11C189 424 189 417 189 410 189 403 190 397 191 391l0-41C191 343 191 335 192 328 192 321 192 312 192 303 193 292 193 278 193 261 193 244 193 226 193 207l0-55C193 133 193 116 193 101 193 86 193 73 194 64l0-5C194 50 194 43 195 38 195 32 195 27 195 24l0-8C194 9 194 4 193 1 192-3 190-5 186-5 178-5 173-4 171-2l0 185C171 215 171 245 170 274 169 303 167 334 166 367l0 16-45 0C120 383 113 383 102 384 91 384 80 383 69 381 66 380 64 380 63 380 62 380 61 377 60 372l0-9C61 344 62 327 63 312 64 297 64 278 64 257l0-22C64 224 64 210 64 194 63 177 63 157 63 133 63 120 63 107 63 93 63 79 63 64 64 47 64 42 64 36 64 31 64 25 64 19 63 14l-3-25C59-12 58-13 56-13 53-14 51-14 50-14 45-14 42-6 42 10 42 13 42 17 43 20 43 23 43 27 43 30 44 35 44 40 44 46 44 51 44 58 44 65 44 90 44 112 44 130 44 148 44 165 43 180 43 193 43 206 43 218 42 230 42 243 42 258l0 24C42 307 42 330 41 350 40 370 39 389 38 408 37 423 37 440 37 459 36 477 36 495 36 513 36 529 36 546 37 565 37 583 37 596 38 604l0 119C38 724 41 724 47 724 52 724 56 722 58 718l0-153C58 546 58 526 58 507 58 488 58 468 57 447l0-5C57 434 57 427 57 422 57 417 58 412 59 407l0-8C63 399 67 399 72 400 76 400 80 400 85 400 94 401 103 401 114 402 125 402 134 402 142 402 147 402 151 402 154 403 157 403 160 403 165 403l0 6C166 442 167 472 168 501 168 529 168 556 168 581 168 606 168 630 167 651 166 672 166 687 165 696l0 12C165 711 166 715 167 718 168 721 171 722 175 722z" unicode="H"></glyph>
    <glyph d="M181 722C184 704 187 686 188 667 189 648 190 626 190 603l0-70C190 518 190 504 190 489 189 474 189 458 189 442l0-11C189 424 189 417 189 410 189 403 190 397 191 391l0-41C191 343 191 335 192 328 192 321 192 312 192 303 193 292 193 278 193 261 193 244 193 226 193 207l0-55C193 133 193 116 193 101 193 86 193 73 194 64l0-5C194 50 194 43 195 38 195 32 195 27 195 24l0-8C194 9 194 4 193 1 192-3 190-5 186-5 178-5 173-4 171-2l0 185C171 215 171 245 170 274 169 303 167 334 166 367l0 16-45 0C120 383 113 383 102 384 91 384 80 383 69 381 66 380 64 380 63 380 62 380 61 377 60 372l0-9C61 344 62 327 63 312 64 297 64 278 64 257l0-22C64 224 64 210 64 194 63 177 63 157 63 133 63 120 63 107 63 93 63 79 63 64 64 47 64 42 64 36 64 31 64 25 64 19 63 14l-3-25C59-12 58-13 56-13 53-14 51-14 50-14 45-14 42-6 42 10 42 13 42 17 43 20 43 23 43 27 43 30 44 35 44 40 44 46 44 51 44 58 44 65 44 90 44 112 44 130 44 148 44 165 43 180 43 193 43 206 43 218 42 230 42 243 42 258l0 24C42 307 42 330 41 350 40 370 39 389 38 408 37 423 37 440 37 459 36 477 36 495 36 513 36 529 36 546 37 565 37 583 37 596 38 604l0 119C38 724 41 724 47 724 52 724 56 722 58 718l0-153C58 546 58 526 58 507 58 488 58 468 57 447l0-5C57 434 57 427 57 422 57 417 58 412 59 407l0-8C63 399 67 399 72 400 76 400 80 400 85 400 94 401 103 401 114 402 125 402 134 402 142 402 147 402 151 402 154 403 157 403 160 403 165 403l0 6C166 442 167 472 168 501 168 529 168 556 168 581 168 606 168 630 167 651 166 672 166 687 165 696l0 12C165 711 166 715 167 718 168 721 171 722 175 722M175 474C177 471 178 468 178 465 178 462 178 461 177 460l-10 0-17 1-41 0-29 0-9 0-21 0C49 462 49 464 49 466 49 468 49 470 48 473 55 473 61 473 67 473 72 473 78 473 83 472l30 0 17 0 18 0C153 472 157 472 162 472 166 472 170 472 175 471M48 474C48 473 48 473 48 473l0 0z" unicode="Ħ"></glyph>
    <glyph d="M181 722C184 704 187 686 188 667 189 648 190 626 190 603l0-70C190 518 190 504 190 489 189 474 189 458 189 442l0-11C189 424 189 417 189 410 189 403 190 397 191 391l0-41C191 343 191 335 192 328 192 321 192 312 192 303 193 292 193 278 193 261 193 244 193 226 193 207l0-55C193 133 193 116 193 101 193 86 193 73 194 64l0-5C194 50 194 43 195 38 195 32 195 27 195 24l0-8C194 9 194 4 193 1 192-3 190-5 186-5 178-5 173-4 171-2l0 185C171 215 171 245 170 274 169 303 167 334 166 367l0 16-45 0C120 383 113 383 102 384 91 384 80 383 69 381 66 380 64 380 63 380 62 380 61 377 60 372l0-9C61 344 62 327 63 312 64 297 64 278 64 257l0-22C64 224 64 210 64 194 63 177 63 157 63 133 63 120 63 107 63 93 63 79 63 64 64 47 64 42 64 36 64 31 64 25 64 19 63 14l-3-25C59-12 58-13 56-13 53-14 51-14 50-14 45-14 42-6 42 10 42 13 42 17 43 20 43 23 43 27 43 30 44 35 44 40 44 46 44 51 44 58 44 65 44 90 44 112 44 130 44 148 44 165 43 180 43 193 43 206 43 218 42 230 42 243 42 258l0 24C42 307 42 330 41 350 40 370 39 389 38 408 37 423 37 440 37 459 36 477 36 495 36 513 36 529 36 546 37 565 37 583 37 596 38 604l0 119C38 724 41 724 47 724 52 724 56 722 58 718l0-153C58 546 58 526 58 507 58 488 58 468 57 447l0-5C57 434 57 427 57 422 57 417 58 412 59 407l0-8C63 399 67 399 72 400 76 400 80 400 85 400 94 401 103 401 114 402 125 402 134 402 142 402 147 402 151 402 154 403 157 403 160 403 165 403l0 6C166 442 167 472 168 501 168 529 168 556 168 581 168 606 168 630 167 651 166 672 166 687 165 696l0 12C165 711 166 715 167 718 168 721 171 722 175 722M84 842C88 847 92 852 96 855 100 858 104 860 107 860 109 860 112 858 117 853 122 848 126 844 129 840 133 834 137 830 141 827 144 824 148 821 151 818 154 815 157 811 160 808 163 804 167 799 171 792 172 791 172 790 172 788 172 785 170 783 166 783 162 783 158 785 154 789l-1 0C148 795 143 800 140 803 136 806 133 809 130 812 127 815 123 818 120 821 116 824 111 829 106 836 97 827 89 819 83 812 76 805 68 798 59 789l-10-5C48 784 47 784 46 783 43 783 40 786 39 791 46 802 53 811 60 816 67 821 75 830 83 841z" unicode="Ĥ"></glyph>
    <glyph d="M65 548C65 533 65 517 65 500 65 483 65 466 64 448 63 429 63 408 63 385 62 362 62 340 62 321 62 295 62 270 63 246 64 222 64 198 65 174 66 157 66 138 67 118 67 97 67 78 67 59l0-6C67 47 67 41 67 34 67 27 67 21 66 15 65 9 63 4 61 0 59-4 56-6 53-6 51-6 49-4 47-1 44 2 43 10 43 21l0 475C43 503 43 511 43 519 42 527 42 535 42 544 42 547 42 550 42 555 42 560 42 567 42 578 41 589 41 603 41 622 40 640 40 664 39 694 39 701 40 709 41 716 42 723 44 727 47 727 50 727 53 727 56 726 59 725 61 723 62 721z" unicode="I"></glyph>
    <glyph d="M65 548C65 533 65 517 65 500 65 483 65 466 64 448 63 429 63 408 63 385 62 362 62 340 62 321 62 295 62 270 63 246 64 222 64 198 65 174 66 157 66 138 67 118 67 97 67 78 67 59l0-6C67 47 67 41 67 34 67 27 67 21 66 15 65 9 63 4 61 0 59-4 56-6 53-6 51-6 49-4 47-1 44 2 43 10 43 21l0 475C43 503 43 511 43 519 42 527 42 535 42 544 42 547 42 550 42 555 42 560 42 567 42 578 41 589 41 603 41 622 40 640 40 664 39 694 39 701 40 709 41 716 42 723 44 727 47 727 50 727 53 727 56 726 59 725 61 723 62 721M119 853C119 849 117 845 113 840 109 835 104 830 99 825 94 819 88 813 82 806 76 799 71 791 66 782 65 780 63 779 61 779 59 778 57 778 56 778 53 778 52 780 51 783 50 786 50 788 51 790 51 790 53 793 56 799 59 804 62 811 67 818 71 825 75 832 80 839 85 846 89 850 93 853 98 857 104 859 109 859 111 859 113 858 116 857 118 856 119 854 119 853z" unicode="Í"></glyph>
    <glyph d="M60 548C60 533 60 517 60 500 60 483 60 466 59 448 58 429 58 408 58 385 57 362 57 340 57 321 57 295 57 270 58 246 59 222 59 198 60 174 61 157 61 138 62 118 62 97 62 78 62 59l0-6C62 47 62 41 62 34 62 27 62 21 61 15 60 9 58 4 56 0 54-4 51-6 48-6 46-6 44-4 42-1 39 2 38 10 38 21l0 475C38 503 38 511 38 519 37 527 37 535 37 544 37 547 37 550 37 555 37 560 37 567 37 578 36 589 36 603 36 622 35 640 35 664 34 694 34 701 35 709 36 716 37 723 39 727 42 727 45 727 48 727 51 726 54 725 56 723 57 721M20 803C25 800 30 799 33 798 36 797 40 797 45 797 46 797 48 797 53 797 57 796 62 797 68 799 73 800 78 803 83 808 88 813 91 820 93 830 94 838 97 842 103 842 107 842 109 839 109 833 109 818 104 804 93 792 82 780 64 774 41 774 34 774 27 776 20 780 13 783 6 788 1 794-4 799-9 805-12 812-15 819-17 825-17 831-17 836-14 839-9 839-6 839-4 838-2 835-1 832 1 829 2 825 3 821 5 817 8 813 11 809 15 806 20 803z" unicode="Ĭ"></glyph>
    <glyph d="M65 548C65 533 65 517 65 500 65 483 65 466 64 448 63 429 63 408 63 385 62 362 62 340 62 321 62 295 62 270 63 246 64 222 64 198 65 174 66 157 66 138 67 118 67 97 67 78 67 59l0-6C67 47 67 41 67 34 67 27 67 21 66 15 65 9 63 4 61 0 59-4 56-6 53-6 51-6 49-4 47-1 44 2 43 10 43 21l0 475C43 503 43 511 43 519 42 527 42 535 42 544 42 547 42 550 42 555 42 560 42 567 42 578 41 589 41 603 41 622 40 640 40 664 39 694 39 701 40 709 41 716 42 723 44 727 47 727 50 727 53 727 56 726 59 725 61 723 62 721M27 842C31 847 35 852 39 855 43 858 47 860 50 860 52 860 55 858 60 853 65 848 69 844 72 840 76 834 80 830 84 827 87 824 91 821 94 818 97 815 100 811 103 808 106 804 110 799 114 792 115 791 115 790 115 788 115 785 113 783 109 783 105 783 101 785 97 789l-1 0C91 795 86 800 83 803 79 806 76 809 73 812 70 815 66 818 63 821 59 824 54 829 49 836 40 827 32 819 26 812 19 805 11 798 2 789l-10-5C-9 784-10 784-11 783-14 783-17 786-18 791-11 802-4 811 3 816 10 821 18 830 26 841z" unicode="Î"></glyph>
    <glyph d="M63 548C63 533 63 517 63 500 63 483 63 466 62 448 61 429 61 408 61 385 60 362 60 340 60 321 60 295 60 270 61 246 62 222 62 198 63 174 64 157 64 138 65 118 65 97 65 78 65 59l0-6C65 47 65 41 65 34 65 27 65 21 64 15 63 9 61 4 59 0 57-4 54-6 51-6 49-6 47-4 45-1 42 2 41 10 41 21l0 475C41 503 41 511 41 519 40 527 40 535 40 544 40 547 40 550 40 555 40 560 40 567 40 578 39 589 39 603 39 622 38 640 38 664 37 694 37 701 38 709 39 716 40 723 42 727 45 727 48 727 51 727 54 726 57 725 59 723 60 721M105 815C108 813 110 810 110 806 110 794 104 788 91 788 88 788 85 790 82 793 79 796 77 799 77 803l0 4C81 814 86 817 93 817 94 817 96 817 98 817 99 817 102 816 105 815M0 820C9 820 16 818 19 815 22 811 23 805 23 797 23 794 22 791 20 788 18 784 14 782 9 782-6 782-13 788-13 801-13 804-12 807-11 810-8 817-5 820 0 820z" unicode="Ï"></glyph>
    <glyph d="M65 548C65 533 65 517 65 500 65 483 65 466 64 448 63 429 63 408 63 385 62 362 62 340 62 321 62 295 62 270 63 246 64 222 64 198 65 174 66 157 66 138 67 118 67 97 67 78 67 59l0-6C67 47 67 41 67 34 67 27 67 21 66 15 65 9 63 4 61 0 59-4 56-6 53-6 51-6 49-4 47-1 44 2 43 10 43 21l0 475C43 503 43 511 43 519 42 527 42 535 42 544 42 547 42 550 42 555 42 560 42 567 42 578 41 589 41 603 41 622 40 640 40 664 39 694 39 701 40 709 41 716 42 723 44 727 47 727 50 727 53 727 56 726 59 725 61 723 62 721M45 816C46 817 48 817 50 817 52 817 54 817 55 817 60 817 64 814 66 809 68 804 69 799 69 795 69 791 68 788 65 785 62 782 57 780 52 780 47 780 43 781 40 784 36 787 34 791 34 797 34 802 35 806 37 809 39 812 42 814 45 816z" unicode="İ"></glyph>
    <glyph d="M64 548C64 533 64 517 64 500 64 483 64 466 63 448 62 429 62 408 62 385 61 362 61 340 61 321 61 295 61 270 62 246 63 222 63 198 64 174 65 157 65 138 66 118 66 97 66 78 66 59l0-6C66 47 66 41 66 34 66 27 66 21 65 15 64 9 62 4 60 0 58-4 55-6 52-6 50-6 48-4 46-1 43 2 42 10 42 21l0 475C42 503 42 511 42 519 41 527 41 535 41 544 41 547 41 550 41 555 41 560 41 567 41 578 40 589 40 603 40 622 39 640 39 664 38 694 38 701 39 709 40 716 41 723 43 727 46 727 49 727 52 727 55 726 58 725 60 723 61 721M60 789C61 788 61 786 61 785 61 784 61 783 60 782 59 781 56 781 49 781l-4 3C42 785 39 787 37 788 35 789 33 791 31 794 28 797 25 800 21 805 16 809 12 813 8 818 3 822 0 826-3 830-6 834-8 837-8 840-8 843-7 845-6 847-5 848-1 849 4 849 7 849 10 849 12 848 13 847 16 845 19 842l1-1C27 831 34 822 41 815 47 807 53 798 60 789z" unicode="Ì"></glyph>
    <glyph d="M63 548C63 533 63 517 63 500 63 483 63 466 62 448 61 429 61 408 61 385 60 362 60 340 60 321 60 295 60 270 61 246 62 222 62 198 63 174 64 157 64 138 65 118 65 97 65 78 65 59l0-6C65 47 65 41 65 34 65 27 65 21 64 15 63 9 61 4 59 0 57-4 54-6 51-6 49-6 47-4 45-1 42 2 41 10 41 21l0 475C41 503 41 511 41 519 40 527 40 535 40 544 40 547 40 550 40 555 40 560 40 567 40 578 39 589 39 603 39 622 38 640 38 664 37 694 37 701 38 709 39 716 40 723 42 727 45 727 48 727 51 727 54 726 57 725 59 723 60 721M103 800C104 798 106 796 107 795 108 794 108 791 108 788 108 786 108 785 107 785 106 784 105 783 104 781 99 782 89 783 74 784 59 784 42 784 24 784l-23 0C-4 784-7 785-8 787-9 788-10 791-10 794-10 795-9 797-6 799-3 801 2 802 9 802 14 802 24 802 38 802 51 802 64 802 75 803 86 803 96 802 103 800z" unicode="Ī"></glyph>
    <glyph d="M63 548C63 533 63 517 63 500 63 483 63 466 62 448 61 429 61 408 61 385 60 362 60 340 60 321 60 295 60 270 61 246 62 222 62 198 63 174 64 157 64 138 65 118 65 97 65 78 65 59l0-6C65 47 65 41 65 34 65 27 65 21 64 15 63 9 61 4 59 0 57-4 54-6 51-6 49-6 47-4 45-1 42 2 41 10 41 21l0 475C41 503 41 511 41 519 40 527 40 535 40 544 40 547 40 550 40 555 40 560 40 567 40 578 39 589 39 603 39 622 38 640 38 664 37 694 37 701 38 709 39 716 40 723 42 727 45 727 48 727 51 727 54 726 57 725 59 723 60 721M62 6C44-8 31-19 24-27 17-36 12-48 10-64 12-69 16-74 21-79 26-84 31-86 37-86 40-85 43-84 46-81 49-78 53-75 57-72 60-69 63-66 66-63 69-60 71-59 72-59 76-59 79-62 81-68 74-81 66-90 59-94 51-98 43-101 36-102 26-102 16-98 6-90-5-81-10-74-11-69-12-64-12-60-12-59-12-55-12-52-11-49-10-47-8-43-5-37-2-32 1-27 4-24 7-21 10-19 14-16 17-13 21-10 26-7 31-4 36 0 43 6z" unicode="Į"></glyph>
    <glyph d="M64 548C64 533 64 517 64 500 64 483 64 466 63 448 62 429 62 408 62 385 61 362 61 340 61 321 61 295 61 270 62 246 63 222 63 198 64 174 65 157 65 138 66 118 66 97 66 78 66 59l0-6C66 47 66 41 66 34 66 27 66 21 65 15 64 9 62 4 60 0 58-4 55-6 52-6 50-6 48-4 46-1 43 2 42 10 42 21l0 475C42 503 42 511 42 519 41 527 41 535 41 544 41 547 41 550 41 555 41 560 41 567 41 578 40 589 40 603 40 622 39 640 39 664 38 694 38 701 39 709 40 716 41 723 43 727 46 727 49 727 52 727 55 726 58 725 60 723 61 721M101 788C95 783 88 781 80 781 72 781 65 783 60 786 54 789 49 793 44 798 39 802 34 806 30 809 25 812 21 814 17 814 12 814 8 813 6 810 3 807 1 804 0 801-2 797-4 794-6 791-9 788-12 787-16 787-19 787-21 788-21 790-21 805-17 817-8 824 0 831 9 835 18 835 24 835 29 833 34 830 39 827 43 823 48 819 53 815 57 811 62 808 67 805 72 803 78 803 86 803 92 806 97 811 102 816 104 822 104 829l0 6C104 838 105 839 108 839 111 839 114 837 117 833 120 829 121 825 121 822 121 809 114 798 101 788z" unicode="Ĩ"></glyph>
    <glyph d="M127 691C127 668 127 648 127 630 126 611 126 594 125 578 124 561 124 542 124 521 124 500 124 481 124 463 124 444 124 425 125 406 125 387 125 368 126 349 127 330 127 311 128 292 129 273 129 254 129 235l0-140C128 79 127 65 125 52 123 39 119 26 114 15l-27-26C84-12 80-13 75-13 62-13 50-5 39 11 28 27 20 45 15 66 18 71 22 74 27 74 33 74 37 70 39 62l0-1C42 52 46 44 51 35 56 26 61 18 68 13l0-2 8 0 0 1C91 21 101 37 105 58 108 79 110 110 110 152l0 90C110 255 110 269 110 283 109 297 109 311 108 326 107 341 107 357 107 372 106 387 106 403 106 418 106 431 106 445 106 459 106 473 106 487 107 502 107 513 107 528 108 545 108 562 108 576 108 587 108 604 108 621 108 638 107 655 107 672 106 689l0 10C100 701 95 702 90 703 85 704 79 704 74 704 71 704 68 704 66 704 64 703 61 702 56 700l-7 0C45 700 43 702 43 706 43 716 46 722 51 723 56 724 61 725 68 724l6 0C77 724 80 724 83 724 86 723 89 723 92 723l25 0C118 723 120 723 122 724 124 724 126 724 128 724 135 724 142 723 148 722 153 720 156 716 156 710 156 704 153 701 148 700 146 701 144 701 142 702 140 703 138 703 136 703 133 703 130 702 127 700z" unicode="J"></glyph>
    <glyph d="M127 691C127 668 127 648 127 630 126 611 126 594 125 578 124 561 124 542 124 521 124 500 124 481 124 463 124 444 124 425 125 406 125 387 125 368 126 349 127 330 127 311 128 292 129 273 129 254 129 235l0-140C128 79 127 65 125 52 123 39 119 26 114 15l-27-26C84-12 80-13 75-13 62-13 50-5 39 11 28 27 20 45 15 66 18 71 22 74 27 74 33 74 37 70 39 62l0-1C42 52 46 44 51 35 56 26 61 18 68 13l0-2 8 0 0 1C91 21 101 37 105 58 108 79 110 110 110 152l0 90C110 255 110 269 110 283 109 297 109 311 108 326 107 341 107 357 107 372 106 387 106 403 106 418 106 431 106 445 106 459 106 473 106 487 107 502 107 513 107 528 108 545 108 562 108 576 108 587 108 604 108 621 108 638 107 655 107 672 106 689l0 10C100 701 95 702 90 703 85 704 79 704 74 704 71 704 68 704 66 704 64 703 61 702 56 700l-7 0C45 700 43 702 43 706 43 716 46 722 51 723 56 724 61 725 68 724l6 0C77 724 80 724 83 724 86 723 89 723 92 723l25 0C118 723 120 723 122 724 124 724 126 724 128 724 135 724 142 723 148 722 153 720 156 716 156 710 156 704 153 701 148 700 146 701 144 701 142 702 140 703 138 703 136 703 133 703 130 702 127 700M80 842C84 847 88 852 92 855 96 858 100 860 103 860 105 860 108 858 113 853 118 848 122 844 125 840 129 834 133 830 137 827 140 824 144 821 147 818 150 815 153 811 156 808 159 804 163 799 167 792 168 791 168 790 168 788 168 785 166 783 162 783 158 783 154 785 150 789l-1 0C144 795 139 800 136 803 132 806 129 809 126 812 123 815 119 818 116 821 112 824 107 829 102 836 93 827 85 819 79 812 72 805 64 798 55 789l-10-5C44 784 43 784 42 783 39 783 36 786 35 791 42 802 49 811 56 816 63 821 71 830 79 841z" unicode="Ĵ"></glyph>
    <glyph d="M229 738C223 733 216 724 209 713 202 702 194 688 187 673 180 658 173 641 166 624 159 607 152 590 145 573 138 555 131 538 124 521 117 504 109 486 100 469l0-7C107 425 114 394 123 370 131 346 139 323 148 300 155 283 162 265 169 245 176 225 183 205 188 184 200 141 210 103 219 68 228 33 232 8 232-7 231-6 228-6 223-6 222-6 220-7 219-8 218-9 217-10 217-11l0 2C210 17 202 43 195 69 188 94 181 121 174 150 169 173 162 196 155 219 147 242 140 262 133 279 124 303 115 328 106 353 97 378 89 405 82 434l0 5C79 436 76 431 73 425 70 418 65 408 58 394l0-3C58 384 58 376 59 369 59 361 59 353 59 346 58 331 58 318 58 306 57 294 57 282 57 269l0-21C57 237 57 227 58 218 58 209 58 199 58 190 59 181 59 169 59 154 59 139 59 123 59 105 59 101 59 96 59 91 59 85 59 79 60 73 61 64 61 53 62 40 62 27 62 13 62-2 62-3 60-4 57-6 53-5 49-5 46-4 42-3 40-2 39-1 40 9 40 17 40 24 40 30 40 36 40 43 40 53 40 63 40 73 39 83 39 93 38 102 37 111 37 121 37 132 36 143 36 157 36 174 35 191 35 210 35 233 34 255 34 281 34 312 34 322 34 334 35 349 36 364 35 376 34 387l-1 125C32 525 32 538 33 551 33 564 33 578 33 592l0 45C33 659 33 680 33 699 33 718 32 737 31 755l9 0C46 755 50 752 51 747 51 738 51 728 52 719 52 710 52 699 52 688 52 670 52 651 53 630 53 609 53 587 53 566 53 545 53 524 54 504 54 483 54 465 55 448l0-9C76 473 96 513 116 558 136 603 155 646 174 689l16 37C194 733 199 740 204 745 209 750 216 752 223 753 227 749 229 745 229 742z" unicode="K"></glyph>
    <glyph d="M229 738C223 733 216 724 209 713 202 702 194 688 187 673 180 658 173 641 166 624 159 607 152 590 145 573 138 555 131 538 124 521 117 504 109 486 100 469l0-7C107 425 114 394 123 370 131 346 139 323 148 300 155 283 162 265 169 245 176 225 183 205 188 184 200 141 210 103 219 68 228 33 232 8 232-7 231-6 228-6 223-6 222-6 220-7 219-8 218-9 217-10 217-11l0 2C210 17 202 43 195 69 188 94 181 121 174 150 169 173 162 196 155 219 147 242 140 262 133 279 124 303 115 328 106 353 97 378 89 405 82 434l0 5C79 436 76 431 73 425 70 418 65 408 58 394l0-3C58 384 58 376 59 369 59 361 59 353 59 346 58 331 58 318 58 306 57 294 57 282 57 269l0-21C57 237 57 227 58 218 58 209 58 199 58 190 59 181 59 169 59 154 59 139 59 123 59 105 59 101 59 96 59 91 59 85 59 79 60 73 61 64 61 53 62 40 62 27 62 13 62-2 62-3 60-4 57-6 53-5 49-5 46-4 42-3 40-2 39-1 40 9 40 17 40 24 40 30 40 36 40 43 40 53 40 63 40 73 39 83 39 93 38 102 37 111 37 121 37 132 36 143 36 157 36 174 35 191 35 210 35 233 34 255 34 281 34 312 34 322 34 334 35 349 36 364 35 376 34 387l-1 125C32 525 32 538 33 551 33 564 33 578 33 592l0 45C33 659 33 680 33 699 33 718 32 737 31 755l9 0C46 755 50 752 51 747 51 738 51 728 52 719 52 710 52 699 52 688 52 670 52 651 53 630 53 609 53 587 53 566 53 545 53 524 54 504 54 483 54 465 55 448l0-9C76 473 96 513 116 558 136 603 155 646 174 689l16 37C194 733 199 740 204 745 209 750 216 752 223 753 227 749 229 745 229 742M128-36C129-35 131-35 132-35 136-35 139-38 140-45 141-52 141-58 141-64 141-69 141-75 140-80 139-85 136-91 133-98 130-103 126-110 120-117 113-125 107-129 102-129 98-129 96-127 96-122 96-121 97-119 98-118l2 3C107-106 113-98 116-93 119-88 121-80 121-69 121-65 120-62 117-60 114-59 113-56 113-52 113-43 118-37 128-36z" unicode="Ķ"></glyph>
    <glyph d="M186 24C190 21 192 15 192 8 192 4 190 2 185 1 180 0 172 0 162 0l-70 0C86 0 80 0 74 1 68 1 62 1 57 1l-26 0C30 15 30 29 30 43 29 56 29 75 29 98l0 20C29 133 29 152 28 176 27 199 27 220 28 239l0 50C28 310 28 328 29 345 29 362 29 378 30 395 30 412 30 429 31 448 31 466 31 487 31 510l0 68C31 591 31 604 31 617 30 630 30 643 29 657l0 6C29 671 29 677 28 680 27 683 27 687 26 691l0 1C24 700 23 708 23 716 24 721 27 724 34 724 43 724 48 720 49 712 50 704 51 694 51 683l0-9C52 651 52 627 53 601 53 575 53 551 53 529 53 496 52 462 51 428 50 394 49 358 49 320 49 301 50 283 51 265 52 247 52 229 52 210 52 200 52 190 52 181 51 172 51 162 51 152l0-110C51 31 52 25 54 22 56 19 59 17 62 17 63 17 63 17 64 18 65 19 66 19 67 19l31 0C112 19 125 20 138 22 150 23 163 24 177 24l9 0z" unicode="L"></glyph>
    <glyph d="M186 24C190 21 192 15 192 8 192 4 190 2 185 1 180 0 172 0 162 0l-70 0C86 0 80 0 74 1 68 1 62 1 57 1l-26 0C30 15 30 29 30 43 29 56 29 75 29 98l0 20C29 133 29 152 28 176 27 199 27 220 28 239l0 50C28 310 28 328 29 345 29 362 29 378 30 395 30 412 30 429 31 448 31 466 31 487 31 510l0 68C31 591 31 604 31 617 30 630 30 643 29 657l0 6C29 671 29 677 28 680 27 683 27 687 26 691l0 1C24 700 23 708 23 716 24 721 27 724 34 724 43 724 48 720 49 712 50 704 51 694 51 683l0-9C52 651 52 627 53 601 53 575 53 551 53 529 53 496 52 462 51 428 50 394 49 358 49 320 49 301 50 283 51 265 52 247 52 229 52 210 52 200 52 190 52 181 51 172 51 162 51 152l0-110C51 31 52 25 54 22 56 19 59 17 62 17 63 17 63 17 64 18 65 19 66 19 67 19l31 0C112 19 125 20 138 22 150 23 163 24 177 24l9 0M110 853C110 849 108 845 104 840 100 835 95 830 90 825 85 819 79 813 73 806 67 799 62 791 57 782 56 780 54 779 52 779 50 778 48 778 47 778 44 778 43 780 42 783 41 786 41 788 42 790 42 790 44 793 47 799 50 804 53 811 58 818 62 825 66 832 71 839 76 846 80 850 84 853 89 857 95 859 100 859 102 859 104 858 107 857 109 856 110 854 110 853z" unicode="Ĺ"></glyph>
    <glyph d="M186 24C190 21 192 15 192 8 192 4 190 2 185 1 180 0 172 0 162 0l-70 0C86 0 80 0 74 1 68 1 62 1 57 1l-26 0C30 15 30 29 30 43 29 56 29 75 29 98l0 20C29 133 29 152 28 176 27 199 27 220 28 239l0 50C28 310 28 328 29 345 29 362 29 378 30 395 30 412 30 429 31 448 31 466 31 487 31 510l0 68C31 591 31 604 31 617 30 630 30 643 29 657l0 6C29 671 29 677 28 680 27 683 27 687 26 691l0 1C24 700 23 708 23 716 24 721 27 724 34 724 43 724 48 720 49 712 50 704 51 694 51 683l0-9C52 651 52 627 53 601 53 575 53 551 53 529 53 496 52 462 51 428 50 394 49 358 49 320 49 301 50 283 51 265 52 247 52 229 52 210 52 200 52 190 52 181 51 172 51 162 51 152l0-110C51 31 52 25 54 22 56 19 59 17 62 17 63 17 63 17 64 18 65 19 66 19 67 19l31 0C112 19 125 20 138 22 150 23 163 24 177 24l9 0M155 722C143 720 137 716 137 709 137 707 139 704 142 701 145 699 147 695 147 690 147 677 145 667 142 661 138 655 131 647 122 636 121 636 121 636 121 636l-1 0 0-2C119 633 119 633 119 632 119 631 119 631 118 631 118 629 119 628 122 628 129 628 137 632 144 640 151 647 156 654 159 659 166 672 170 684 170 695 170 701 169 707 168 713 166 719 163 722 159 722M155 723l0-1C154 723 154 723 155 723z" unicode="Ľ"></glyph>
    <glyph d="M186 24C190 21 192 15 192 8 192 4 190 2 185 1 180 0 172 0 162 0l-70 0C86 0 80 0 74 1 68 1 62 1 57 1l-26 0C30 15 30 29 30 43 29 56 29 75 29 98l0 20C29 133 29 152 28 176 27 199 27 220 28 239l0 50C28 310 28 328 29 345 29 362 29 378 30 395 30 412 30 429 31 448 31 466 31 487 31 510l0 68C31 591 31 604 31 617 30 630 30 643 29 657l0 6C29 671 29 677 28 680 27 683 27 687 26 691l0 1C24 700 23 708 23 716 24 721 27 724 34 724 43 724 48 720 49 712 50 704 51 694 51 683l0-9C52 651 52 627 53 601 53 575 53 551 53 529 53 496 52 462 51 428 50 394 49 358 49 320 49 301 50 283 51 265 52 247 52 229 52 210 52 200 52 190 52 181 51 172 51 162 51 152l0-110C51 31 52 25 54 22 56 19 59 17 62 17 63 17 63 17 64 18 65 19 66 19 67 19l31 0C112 19 125 20 138 22 150 23 163 24 177 24l9 0M112-36C113-35 115-35 116-35 120-35 123-38 124-45 125-52 125-58 125-64 125-69 125-75 124-80 123-85 120-91 117-98 114-103 110-110 104-117 97-125 91-129 86-129 82-129 80-127 80-122 80-121 81-119 82-118l2 3C91-106 97-98 100-93 103-88 105-80 105-69 105-65 104-62 101-60 98-59 97-56 97-52 97-43 102-37 112-36z" unicode="Ļ"></glyph>
    <glyph d="M186 24C190 21 192 15 192 8 192 4 190 2 185 1 180 0 172 0 162 0l-70 0C86 0 80 0 74 1 68 1 62 1 57 1l-26 0C30 15 30 29 30 43 29 56 29 75 29 98l0 20C29 133 29 152 28 176 27 199 27 220 28 239l0 50C28 310 28 328 29 345 29 362 29 378 30 395 30 412 30 429 31 448 31 466 31 487 31 510l0 68C31 591 31 604 31 617 30 630 30 643 29 657l0 6C29 671 29 677 28 680 27 683 27 687 26 691l0 1C24 700 23 708 23 716 24 721 27 724 34 724 43 724 48 720 49 712 50 704 51 694 51 683l0-9C52 651 52 627 53 601 53 575 53 551 53 529 53 496 52 462 51 428 50 394 49 358 49 320 49 301 50 283 51 265 52 247 52 229 52 210 52 200 52 190 52 181 51 172 51 162 51 152l0-110C51 31 52 25 54 22 56 19 59 17 62 17 63 17 63 17 64 18 65 19 66 19 67 19l31 0C112 19 125 20 138 22 150 23 163 24 177 24l9 0M116 407C117 408 119 408 123 408 135 408 145 405 152 400 159 394 162 386 162 377 162 371 160 365 155 360 150 355 143 352 134 352 125 352 117 355 111 361 105 366 102 374 102 385 102 390 103 394 105 399 106 403 110 406 116 407z" unicode="Ŀ"></glyph>
    <glyph d="M187 24C192 21 194 15 194 8 194 4 192 2 187 1 182 0 174 0 163 0l-69 0C88 0 82 0 77 1 71 1 65 1 58 1l-25 0C32 15 31 29 32 43 32 56 32 75 32 98l0 21C31 133 30 151 30 174 30 196 30 218 30 239l0 106C26 342 23 339 21 337 18 335 15 333 12 330l-27-14-6 22 52 36 0 9C31 388 31 394 32 399 32 404 32 410 32 415 33 428 33 443 34 458 34 473 34 491 34 510l0 68C34 605 33 634 31 663 31 669 31 674 31 679 30 683 30 687 29 691 28 695 28 700 27 706 26 712 26 716 26 717 27 722 30 724 37 724 44 724 49 720 50 712 51 704 52 694 52 683l0-9C53 651 54 627 54 602 54 577 54 552 54 529 54 507 54 485 54 464 53 442 53 420 52 397l0-8 50 33C105 417 107 412 108 406 109 400 109 395 109 392 108 393 105 392 98 388 91 384 84 379 76 374l0-1C72 370 68 368 63 366 58 364 54 362 51 359l0-39C51 311 51 302 52 293 52 284 52 275 52 266l0-1C53 256 53 247 53 238 53 229 53 219 53 210 53 200 53 190 53 181 52 172 52 162 52 152l0-77C52 72 52 69 53 66 53 63 53 59 53 56l0-14C53 31 54 25 55 22 56 19 58 17 60 17 61 17 63 17 64 18 65 19 67 19 69 19l32 0C107 19 113 19 119 20 125 20 131 20 138 21 145 22 151 22 158 23 165 24 172 24 180 24z" unicode="Ł"></glyph>
    <glyph d="M236 589C236 583 236 577 236 572 235 566 235 560 235 554l0-35C234 508 234 496 234 484 233 472 233 460 233 448l0-19C233 426 233 422 234 419 234 415 234 411 234 406l0-50C234 347 234 337 235 328 235 319 235 308 235 297l0-136C235 109 236 67 238 35 239 31 239 27 240 23 240 18 240 15 240 12 240 7 240 3 240 1 239-1 239-2 239-3 238-4 237-4 236-5 234-6 232-7 230-7 227-7 225-6 222-5 219-4 217-4 217-3l-6 230 0 196C211 430 211 437 211 444 210 451 210 458 210 465l0 35C210 506 210 512 211 519 211 526 211 533 211 540l2 113C207 628 201 603 195 576 189 549 184 524 181 503 179 496 177 486 175 474 173 461 171 448 169 435 166 414 162 395 158 376 153 357 147 340 139 327 132 332 127 340 123 353 118 366 114 381 111 398l0 1C102 431 95 460 89 485 83 510 77 537 72 565l-8 38C62 614 60 627 58 643 55 658 52 673 49 686l0-2C50 638 51 594 52 552 53 509 53 472 53 441l0-212C53 215 53 202 53 191 52 179 52 167 51 154l0-8C50 135 50 123 50 112 50 101 50 88 50 74l3-63 0-4C53 6 53 6 54 5 54 4 54 4 54 3 54 0 52-2 49-3 52-3 50-4 45-5 43-5 41-4 38-3 35-2 34-1 33 0 32 14 32 29 32 44 31 59 31 76 31 95 31 114 31 132 31 148 31 164 31 179 32 192 33 205 33 218 33 231 33 244 33 259 33 274l0 160C33 453 33 470 33 487 33 503 33 519 32 534 31 581 29 627 26 672 26 675 26 679 27 684 27 688 27 692 27 697 27 703 27 707 27 709 26 711 26 713 27 714 28 714 29 715 30 717 31 718 32 720 33 721 34 722 35 724 36 725 37 726 39 727 44 728l6 0C53 728 57 726 60 722 63 718 65 710 68 697l13-65 0-1C84 621 87 611 89 602 91 593 93 584 94 577l0-1C94 575 94 574 95 573 95 572 95 569 96 565 97 561 98 555 100 547 101 539 103 528 106 514l30-133 0-1 1 3 0 1 6 35C151 451 157 480 162 505 167 530 171 552 174 570 175 572 175 576 175 581 180 616 187 644 196 665 199 676 202 686 204 695 206 704 207 712 207 719 208 726 210 729 213 729 216 729 219 729 224 728 228 727 231 725 232 724z" unicode="M"></glyph>
    <glyph d="M219 496C219 473 219 451 220 430 220 409 220 388 220 367l0-110C220 238 220 222 221 208 221 194 221 182 222 171 222 160 222 150 223 141 223 132 223 123 224 114 225 103 226 92 227 81 228 70 228 58 228 47 228 42 228 37 228 32 228 27 228 21 227 16 226 6 223-1 219-4 208-4 203-3 202 0l1 19C204 29 204 39 204 50 204 60 204 70 204 80 204 91 204 101 204 108 204 115 204 124 203 133 203 136 203 140 203 145 202 150 202 155 201 161 200 188 199 212 198 234 197 255 197 276 197 295 197 308 193 322 186 336 175 363 165 385 156 404 147 422 138 440 130 457 113 494 98 528 86 559 74 589 62 621 51 654l0-3C50 632 50 612 50 592 50 572 50 554 50 538l0-35C50 484 50 466 50 449 50 431 50 413 51 395 52 360 52 325 53 289 53 252 53 214 53 174 53 142 53 116 54 97 55 77 56 58 57 41l0-14C57 19 57 13 56 10 55 7 54 3 51-1 52 0 51 0 50-1 48-2 45-3 41-3 36-3 34-1 34 4 34 29 34 51 34 69 33 87 33 105 33 123l0 82C33 263 32 324 30 387 29 412 29 439 29 468 29 496 29 527 29 560 29 591 29 618 29 642 29 666 28 692 27 721 28 727 31 729 34 728 44 728 52 722 57 709 58 701 61 691 65 678 68 665 72 653 76 641 80 628 84 617 89 606 93 595 96 586 99 581l0-1C104 573 109 566 112 559 115 552 119 546 122 541 133 517 142 495 151 475 160 454 169 434 178 413l21-45 0 4C198 428 198 484 197 540 196 595 195 651 194 707 195 714 196 718 198 721 199 724 204 725 212 725 215 723 216 721 216 719 216 710 216 701 217 692 217 683 217 673 217 663 218 640 218 613 219 583 219 553 219 524 219 496z" unicode="N"></glyph>
    <glyph d="M219 496C219 473 219 451 220 430 220 409 220 388 220 367l0-110C220 238 220 222 221 208 221 194 221 182 222 171 222 160 222 150 223 141 223 132 223 123 224 114 225 103 226 92 227 81 228 70 228 58 228 47 228 42 228 37 228 32 228 27 228 21 227 16 226 6 223-1 219-4 208-4 203-3 202 0l1 19C204 29 204 39 204 50 204 60 204 70 204 80 204 91 204 101 204 108 204 115 204 124 203 133 203 136 203 140 203 145 202 150 202 155 201 161 200 188 199 212 198 234 197 255 197 276 197 295 197 308 193 322 186 336 175 363 165 385 156 404 147 422 138 440 130 457 113 494 98 528 86 559 74 589 62 621 51 654l0-3C50 632 50 612 50 592 50 572 50 554 50 538l0-35C50 484 50 466 50 449 50 431 50 413 51 395 52 360 52 325 53 289 53 252 53 214 53 174 53 142 53 116 54 97 55 77 56 58 57 41l0-14C57 19 57 13 56 10 55 7 54 3 51-1 52 0 51 0 50-1 48-2 45-3 41-3 36-3 34-1 34 4 34 29 34 51 34 69 33 87 33 105 33 123l0 82C33 263 32 324 30 387 29 412 29 439 29 468 29 496 29 527 29 560 29 591 29 618 29 642 29 666 28 692 27 721 28 727 31 729 34 728 44 728 52 722 57 709 58 701 61 691 65 678 68 665 72 653 76 641 80 628 84 617 89 606 93 595 96 586 99 581l0-1C104 573 109 566 112 559 115 552 119 546 122 541 133 517 142 495 151 475 160 454 169 434 178 413l21-45 0 4C198 428 198 484 197 540 196 595 195 651 194 707 195 714 196 718 198 721 199 724 204 725 212 725 215 723 216 721 216 719 216 710 216 701 217 692 217 683 217 673 217 663 218 640 218 613 219 583 219 553 219 524 219 496M168 853C168 849 166 845 162 840 158 835 153 830 148 825 143 819 137 813 131 806 125 799 120 791 115 782 114 780 112 779 110 779 108 778 106 778 105 778 102 778 101 780 100 783 99 786 99 788 100 790 100 790 102 793 105 799 108 804 111 811 116 818 120 825 124 832 129 839 134 846 138 850 142 853 147 857 153 859 158 859 160 859 162 858 165 857 167 856 168 854 168 853z" unicode="Ń"></glyph>
    <glyph d="M219 496C219 473 219 451 220 430 220 409 220 388 220 367l0-110C220 238 220 222 221 208 221 194 221 182 222 171 222 160 222 150 223 141 223 132 223 123 224 114 225 103 226 92 227 81 228 70 228 58 228 47 228 42 228 37 228 32 228 27 228 21 227 16 226 6 223-1 219-4 208-4 203-3 202 0l1 19C204 29 204 39 204 50 204 60 204 70 204 80 204 91 204 101 204 108 204 115 204 124 203 133 203 136 203 140 203 145 202 150 202 155 201 161 200 188 199 212 198 234 197 255 197 276 197 295 197 308 193 322 186 336 175 363 165 385 156 404 147 422 138 440 130 457 113 494 98 528 86 559 74 589 62 621 51 654l0-3C50 632 50 612 50 592 50 572 50 554 50 538l0-35C50 484 50 466 50 449 50 431 50 413 51 395 52 360 52 325 53 289 53 252 53 214 53 174 53 142 53 116 54 97 55 77 56 58 57 41l0-14C57 19 57 13 56 10 55 7 54 3 51-1 52 0 51 0 50-1 48-2 45-3 41-3 36-3 34-1 34 4 34 29 34 51 34 69 33 87 33 105 33 123l0 82C33 263 32 324 30 387 29 412 29 439 29 468 29 496 29 527 29 560 29 591 29 618 29 642 29 666 28 692 27 721 28 727 31 729 34 728 44 728 52 722 57 709 58 701 61 691 65 678 68 665 72 653 76 641 80 628 84 617 89 606 93 595 96 586 99 581l0-1C104 573 109 566 112 559 115 552 119 546 122 541 133 517 142 495 151 475 160 454 169 434 178 413l21-45 0 4C198 428 198 484 197 540 196 595 195 651 194 707 195 714 196 718 198 721 199 724 204 725 212 725 215 723 216 721 216 719 216 710 216 701 217 692 217 683 217 673 217 663 218 640 218 613 219 583 219 553 219 524 219 496M106 790C96 800 88 808 81 815 74 821 68 830 61 841 62 846 64 848 68 848l3 0 10-5C90 834 98 827 104 820 110 813 118 805 127 796 132 802 136 807 140 811 143 814 147 817 150 820 153 823 157 826 161 829 164 832 169 837 174 843 177 846 181 848 186 848 190 848 192 847 192 844 192 842 192 841 191 840 187 833 183 828 180 825 177 821 174 818 171 815 168 812 164 809 161 806 157 803 153 798 149 792 146 788 142 784 137 780 132 775 129 773 128 773 125 773 121 775 118 779 114 782 110 786 106 790z" unicode="Ň"></glyph>
    <glyph d="M219 496C219 473 219 451 220 430 220 409 220 388 220 367l0-110C220 238 220 222 221 208 221 194 221 182 222 171 222 160 222 150 223 141 223 132 223 123 224 114 225 103 226 92 227 81 228 70 228 58 228 47 228 42 228 37 228 32 228 27 228 21 227 16 226 6 223-1 219-4 208-4 203-3 202 0l1 19C204 29 204 39 204 50 204 60 204 70 204 80 204 91 204 101 204 108 204 115 204 124 203 133 203 136 203 140 203 145 202 150 202 155 201 161 200 188 199 212 198 234 197 255 197 276 197 295 197 308 193 322 186 336 175 363 165 385 156 404 147 422 138 440 130 457 113 494 98 528 86 559 74 589 62 621 51 654l0-3C50 632 50 612 50 592 50 572 50 554 50 538l0-35C50 484 50 466 50 449 50 431 50 413 51 395 52 360 52 325 53 289 53 252 53 214 53 174 53 142 53 116 54 97 55 77 56 58 57 41l0-14C57 19 57 13 56 10 55 7 54 3 51-1 52 0 51 0 50-1 48-2 45-3 41-3 36-3 34-1 34 4 34 29 34 51 34 69 33 87 33 105 33 123l0 82C33 263 32 324 30 387 29 412 29 439 29 468 29 496 29 527 29 560 29 591 29 618 29 642 29 666 28 692 27 721 28 727 31 729 34 728 44 728 52 722 57 709 58 701 61 691 65 678 68 665 72 653 76 641 80 628 84 617 89 606 93 595 96 586 99 581l0-1C104 573 109 566 112 559 115 552 119 546 122 541 133 517 142 495 151 475 160 454 169 434 178 413l21-45 0 4C198 428 198 484 197 540 196 595 195 651 194 707 195 714 196 718 198 721 199 724 204 725 212 725 215 723 216 721 216 719 216 710 216 701 217 692 217 683 217 673 217 663 218 640 218 613 219 583 219 553 219 524 219 496M134-42C135-41 137-41 138-41 142-41 145-44 146-51 147-58 147-64 147-70 147-75 147-81 146-86 145-91 142-97 139-104 136-109 132-116 126-123 119-131 113-135 108-135 104-135 102-133 102-128 102-127 103-125 104-124l2 3C113-112 119-104 122-99 125-94 127-86 127-75 127-71 126-68 123-66 120-65 119-62 119-58 119-49 124-43 134-42z" unicode="Ņ"></glyph>
    <glyph d="M219 496C219 473 219 451 220 430 220 409 220 388 220 367l0-110C220 238 220 222 221 208 221 194 221 182 222 171 222 160 222 150 223 141 223 132 223 123 224 114 225 103 226 92 227 81 228 70 228 58 228 47 228 42 228 37 228 32 228 27 228 21 227 16 226 6 223-1 219-4 208-4 203-3 202 0l1 19C204 29 204 39 204 50 204 60 204 70 204 80 204 91 204 101 204 108 204 115 204 124 203 133 203 136 203 140 203 145 202 150 202 155 201 161 200 188 199 212 198 234 197 255 197 276 197 295 197 308 193 322 186 336 175 363 165 385 156 404 147 422 138 440 130 457 113 494 98 528 86 559 74 589 62 621 51 654l0-3C50 632 50 612 50 592 50 572 50 554 50 538l0-35C50 484 50 466 50 449 50 431 50 413 51 395 52 360 52 325 53 289 53 252 53 214 53 174 53 142 53 116 54 97 55 77 56 58 57 41l0-14C57 19 57 13 56 10 55 7 54 3 51-1 52 0 51 0 50-1 48-2 45-3 41-3 36-3 34-1 34 4 34 29 34 51 34 69 33 87 33 105 33 123l0 82C33 263 32 324 30 387 29 412 29 439 29 468 29 496 29 527 29 560 29 591 29 618 29 642 29 666 28 692 27 721 28 727 31 729 34 728 44 728 52 722 57 709 58 701 61 691 65 678 68 665 72 653 76 641 80 628 84 617 89 606 93 595 96 586 99 581l0-1C104 573 109 566 112 559 115 552 119 546 122 541 133 517 142 495 151 475 160 454 169 434 178 413l21-45 0 4C198 428 198 484 197 540 196 595 195 651 194 707 195 714 196 718 198 721 199 724 204 725 212 725 215 723 216 721 216 719 216 710 216 701 217 692 217 683 217 673 217 663 218 640 218 613 219 583 219 553 219 524 219 496M178 788C172 783 165 781 157 781 149 781 142 783 137 786 131 789 126 793 121 798 116 802 111 806 107 809 102 812 98 814 94 814 89 814 85 813 83 810 80 807 78 804 77 801 75 797 73 794 71 791 68 788 65 787 61 787 58 787 56 788 56 790 56 805 60 817 69 824 77 831 86 835 95 835 101 835 106 833 111 830 116 827 120 823 125 819 130 815 134 811 139 808 144 805 149 803 155 803 163 803 169 806 174 811 179 816 181 822 181 829l0 6C181 838 182 839 185 839 188 839 191 837 194 833 197 829 198 825 198 822 198 809 191 798 178 788z" unicode="Ñ"></glyph>
    <glyph d="M236 708C247 699 258 686 269 671 280 655 287 637 291 616 296 591 301 569 304 550 307 530 309 512 310 497 311 478 312 457 313 436 314 414 314 393 314 372 314 360 314 348 314 336 314 323 315 310 316 297 316 260 313 223 307 188 301 152 292 118 280 85l0-1C271 64 261 47 251 33 241 18 227 4 208-9 193-16 179-20 166-20 146-20 128-13 112 0 95 13 82 28 72 43 61 63 51 86 44 111 36 136 30 162 26 190 21 217 18 246 17 276 15 306 14 336 14 366 16 426 21 480 28 529 35 577 45 619 58 655 72 689 91 712 114 723 122 727 131 730 140 732 149 733 158 734 166 734 179 734 191 731 202 726 213 720 225 714 236 708M220 696C211 703 202 708 192 711 181 714 171 716 162 716 158 716 153 716 148 715 143 714 137 713 131 710 104 700 85 678 73 644 60 610 51 565 46 510 44 494 42 476 40 457 38 438 37 420 36 404 35 393 35 384 36 376 36 368 35 359 34 348l0-16C34 314 35 295 37 274 39 253 41 231 44 209l0-1C47 179 51 153 58 130 65 106 75 83 88 60 95 48 102 39 108 32 114 25 120 20 127 16 134 12 141 9 148 6 154 3 160 2 167 3l17 2C206 12 223 27 236 49 248 70 260 97 271 130 274 141 278 155 282 173 286 190 289 214 292 243 293 253 294 263 294 273 294 283 294 294 294 306l0 28 0 48C294 393 294 405 295 416 295 427 294 438 293 449l-2 64-4 29C281 577 272 609 261 638 250 666 236 685 220 696z" unicode="O"></glyph>
    <glyph d="M367 723C370 723 373 723 378 723 382 723 385 724 387 726 391 723 394 722 396 721 397 720 399 717 400 713 400 712 399 710 398 708 397 705 394 704 391 704l-12 0C377 704 375 704 372 705 369 705 367 705 364 705 349 705 335 704 321 703 306 701 291 699 276 696l0-305 18 0C302 391 310 391 317 391 324 391 332 391 340 392 347 392 351 389 352 382l0-2C352 377 349 376 343 375l-15 0C320 375 312 375 303 374 294 373 285 372 276 371l0-10C276 357 276 353 276 350 275 346 275 342 275 338l0-69C275 260 275 252 276 243 276 234 276 225 276 215l0-194C279 20 283 20 286 20 289 20 293 20 297 20 295 20 295 20 297 21 298 21 301 21 304 22 307 22 311 22 316 23 320 23 324 23 327 23 332 24 337 25 343 26 348 26 354 26 359 26 365 26 370 25 374 24 377 22 379 18 379 12 379 9 379 6 378 5l-15 0C358 5 353 5 348 5 343 4 337 4 330 3 323 2 315 2 306 1 297 0 288 0 279 0 278 0 278 0 277 0 276-1 275-1 274-1 271-2 269-2 266-2 263-2 261-1 259 1 257 3 255 6 254 10 253 14 252 20 252 27l0 6-11-16-26-20C202-10 189-13 174-13 143-13 117 0 97 25 77 50 62 81 51 120 40 158 32 200 28 245 24 290 22 332 22 372l0 5C22 446 27 503 37 550 46 596 59 633 74 662 89 690 105 710 123 723 141 735 158 741 175 741 178 741 182 740 188 739 194 738 201 735 208 732 215 728 223 723 232 716 240 709 247 701 254 690l0-5C255 685 255 687 255 690 255 693 255 697 255 701l7 15 12 0C284 716 295 717 308 718 321 719 332 720 343 721 348 722 353 722 358 723 362 723 365 723 367 723M236 677C227 688 216 698 205 705 194 712 184 716 177 716 151 716 129 705 112 683 95 660 81 632 71 598 61 563 54 525 50 483 45 441 43 400 43 361l0-8C43 336 44 315 45 292 46 269 49 245 52 220 55 195 60 170 67 145 73 120 81 99 90 80 99 61 111 45 125 33 138 21 154 15 173 15 198 15 216 24 227 41 238 58 245 82 250 113l0 54C250 180 250 193 250 208 249 222 249 237 249 252l0 78C249 351 249 369 249 382 249 395 249 408 250 419 250 428 250 439 251 454 251 469 251 483 251 497 251 510 251 527 251 546 251 565 250 590 249 621l0 4-2 13 0 1C246 648 244 656 243 663 241 670 239 675 236 678z" unicode="Œ"></glyph>
    <glyph d="M236 708C247 699 258 686 269 671 280 655 287 637 291 616 296 591 301 569 304 550 307 530 309 512 310 497 311 478 312 457 313 436 314 414 314 393 314 372 314 360 314 348 314 336 314 323 315 310 316 297 316 260 313 223 307 188 301 152 292 118 280 85l0-1C271 64 261 47 251 33 241 18 227 4 208-9 193-16 179-20 166-20 146-20 128-13 112 0 95 13 82 28 72 43 61 63 51 86 44 111 36 136 30 162 26 190 21 217 18 246 17 276 15 306 14 336 14 366 16 426 21 480 28 529 35 577 45 619 58 655 72 689 91 712 114 723 122 727 131 730 140 732 149 733 158 734 166 734 179 734 191 731 202 726 213 720 225 714 236 708M220 696C211 703 202 708 192 711 181 714 171 716 162 716 158 716 153 716 148 715 143 714 137 713 131 710 104 700 85 678 73 644 60 610 51 565 46 510 44 494 42 476 40 457 38 438 37 420 36 404 35 393 35 384 36 376 36 368 35 359 34 348l0-16C34 314 35 295 37 274 39 253 41 231 44 209l0-1C47 179 51 153 58 130 65 106 75 83 88 60 95 48 102 39 108 32 114 25 120 20 127 16 134 12 141 9 148 6 154 3 160 2 167 3l17 2C206 12 223 27 236 49 248 70 260 97 271 130 274 141 278 155 282 173 286 190 289 214 292 243 293 253 294 263 294 273 294 283 294 294 294 306l0 28 0 48C294 393 294 405 295 416 295 427 294 438 293 449l-2 64-4 29C281 577 272 609 261 638 250 666 236 685 220 696M205 853C205 849 203 845 199 840 195 835 190 830 185 825 180 819 174 813 168 806 162 799 157 791 152 782 151 780 149 779 147 779 145 778 143 778 142 778 139 778 138 780 137 783 136 786 136 788 137 790 137 790 139 793 142 799 145 804 148 811 153 818 157 825 161 832 166 839 171 846 175 850 179 853 184 857 190 859 195 859 197 859 199 858 202 857 204 856 205 854 205 853z" unicode="Ó"></glyph>
    <glyph d="M236 708C247 699 258 686 269 671 280 655 287 637 291 616 296 591 301 569 304 550 307 530 309 512 310 497 311 478 312 457 313 436 314 414 314 393 314 372 314 360 314 348 314 336 314 323 315 310 316 297 316 260 313 223 307 188 301 152 292 118 280 85l0-1C271 64 261 47 251 33 241 18 227 4 208-9 193-16 179-20 166-20 146-20 128-13 112 0 95 13 82 28 72 43 61 63 51 86 44 111 36 136 30 162 26 190 21 217 18 246 17 276 15 306 14 336 14 366 16 426 21 480 28 529 35 577 45 619 58 655 72 689 91 712 114 723 122 727 131 730 140 732 149 733 158 734 166 734 179 734 191 731 202 726 213 720 225 714 236 708M220 696C211 703 202 708 192 711 181 714 171 716 162 716 158 716 153 716 148 715 143 714 137 713 131 710 104 700 85 678 73 644 60 610 51 565 46 510 44 494 42 476 40 457 38 438 37 420 36 404 35 393 35 384 36 376 36 368 35 359 34 348l0-16C34 314 35 295 37 274 39 253 41 231 44 209l0-1C47 179 51 153 58 130 65 106 75 83 88 60 95 48 102 39 108 32 114 25 120 20 127 16 134 12 141 9 148 6 154 3 160 2 167 3l17 2C206 12 223 27 236 49 248 70 260 97 271 130 274 141 278 155 282 173 286 190 289 214 292 243 293 253 294 263 294 273 294 283 294 294 294 306l0 28 0 48C294 393 294 405 295 416 295 427 294 438 293 449l-2 64-4 29C281 577 272 609 261 638 250 666 236 685 220 696M146 803C151 800 156 799 159 798 162 797 166 797 171 797 172 797 174 797 179 797 183 796 188 797 194 799 199 800 204 803 209 808 214 813 217 820 219 830 220 838 223 842 229 842 233 842 235 839 235 833 235 818 230 804 219 792 208 780 190 774 167 774 160 774 153 776 146 780 139 783 132 788 127 794 122 799 117 805 114 812 111 819 109 825 109 831 109 836 112 839 117 839 120 839 122 838 124 835 125 832 127 829 128 825 129 821 131 817 134 813 137 809 141 806 146 803z" unicode="Ŏ"></glyph>
    <glyph d="M236 708C247 699 258 686 269 671 280 655 287 637 291 616 296 591 301 569 304 550 307 530 309 512 310 497 311 478 312 457 313 436 314 414 314 393 314 372 314 360 314 348 314 336 314 323 315 310 316 297 316 260 313 223 307 188 301 152 292 118 280 85l0-1C271 64 261 47 251 33 241 18 227 4 208-9 193-16 179-20 166-20 146-20 128-13 112 0 95 13 82 28 72 43 61 63 51 86 44 111 36 136 30 162 26 190 21 217 18 246 17 276 15 306 14 336 14 366 16 426 21 480 28 529 35 577 45 619 58 655 72 689 91 712 114 723 122 727 131 730 140 732 149 733 158 734 166 734 179 734 191 731 202 726 213 720 225 714 236 708M220 696C211 703 202 708 192 711 181 714 171 716 162 716 158 716 153 716 148 715 143 714 137 713 131 710 104 700 85 678 73 644 60 610 51 565 46 510 44 494 42 476 40 457 38 438 37 420 36 404 35 393 35 384 36 376 36 368 35 359 34 348l0-16C34 314 35 295 37 274 39 253 41 231 44 209l0-1C47 179 51 153 58 130 65 106 75 83 88 60 95 48 102 39 108 32 114 25 120 20 127 16 134 12 141 9 148 6 154 3 160 2 167 3l17 2C206 12 223 27 236 49 248 70 260 97 271 130 274 141 278 155 282 173 286 190 289 214 292 243 293 253 294 263 294 273 294 283 294 294 294 306l0 28 0 48C294 393 294 405 295 416 295 427 294 438 293 449l-2 64-4 29C281 577 272 609 261 638 250 666 236 685 220 696M147 842C151 847 155 852 159 855 163 858 167 860 170 860 172 860 175 858 180 853 185 848 189 844 192 840 196 834 200 830 204 827 207 824 211 821 214 818 217 815 220 811 223 808 226 804 230 799 234 792 235 791 235 790 235 788 235 785 233 783 229 783 225 783 221 785 217 789l-1 0C211 795 206 800 203 803 199 806 196 809 193 812 190 815 186 818 183 821 179 824 174 829 169 836 160 827 152 819 146 812 139 805 131 798 122 789l-10-5C111 784 110 784 109 783 106 783 103 786 102 791 109 802 116 811 123 816 130 821 138 830 146 841z" unicode="Ô"></glyph>
    <glyph d="M236 708C247 699 258 686 269 671 280 655 287 637 291 616 296 591 301 569 304 550 307 530 309 512 310 497 311 478 312 457 313 436 314 414 314 393 314 372 314 360 314 348 314 336 314 323 315 310 316 297 316 260 313 223 307 188 301 152 292 118 280 85l0-1C271 64 261 47 251 33 241 18 227 4 208-9 193-16 179-20 166-20 146-20 128-13 112 0 95 13 82 28 72 43 61 63 51 86 44 111 36 136 30 162 26 190 21 217 18 246 17 276 15 306 14 336 14 366 16 426 21 480 28 529 35 577 45 619 58 655 72 689 91 712 114 723 122 727 131 730 140 732 149 733 158 734 166 734 179 734 191 731 202 726 213 720 225 714 236 708M220 696C211 703 202 708 192 711 181 714 171 716 162 716 158 716 153 716 148 715 143 714 137 713 131 710 104 700 85 678 73 644 60 610 51 565 46 510 44 494 42 476 40 457 38 438 37 420 36 404 35 393 35 384 36 376 36 368 35 359 34 348l0-16C34 314 35 295 37 274 39 253 41 231 44 209l0-1C47 179 51 153 58 130 65 106 75 83 88 60 95 48 102 39 108 32 114 25 120 20 127 16 134 12 141 9 148 6 154 3 160 2 167 3l17 2C206 12 223 27 236 49 248 70 260 97 271 130 274 141 278 155 282 173 286 190 289 214 292 243 293 253 294 263 294 273 294 283 294 294 294 306l0 28 0 48C294 393 294 405 295 416 295 427 294 438 293 449l-2 64-4 29C281 577 272 609 261 638 250 666 236 685 220 696M229 815C232 813 234 810 234 806 234 794 228 788 215 788 212 788 209 790 206 793 203 796 201 799 201 803l0 4C205 814 210 817 217 817 218 817 220 817 222 817 223 817 226 816 229 815M124 820C133 820 140 818 143 815 146 811 147 805 147 797 147 794 146 791 144 788 142 784 138 782 133 782 118 782 111 788 111 801 111 804 112 807 113 810 116 817 119 820 124 820z" unicode="Ö"></glyph>
    <glyph d="M236 708C247 699 258 686 269 671 280 655 287 637 291 616 296 591 301 569 304 550 307 530 309 512 310 497 311 478 312 457 313 436 314 414 314 393 314 372 314 360 314 348 314 336 314 323 315 310 316 297 316 260 313 223 307 188 301 152 292 118 280 85l0-1C271 64 261 47 251 33 241 18 227 4 208-9 193-16 179-20 166-20 146-20 128-13 112 0 95 13 82 28 72 43 61 63 51 86 44 111 36 136 30 162 26 190 21 217 18 246 17 276 15 306 14 336 14 366 16 426 21 480 28 529 35 577 45 619 58 655 72 689 91 712 114 723 122 727 131 730 140 732 149 733 158 734 166 734 179 734 191 731 202 726 213 720 225 714 236 708M220 696C211 703 202 708 192 711 181 714 171 716 162 716 158 716 153 716 148 715 143 714 137 713 131 710 104 700 85 678 73 644 60 610 51 565 46 510 44 494 42 476 40 457 38 438 37 420 36 404 35 393 35 384 36 376 36 368 35 359 34 348l0-16C34 314 35 295 37 274 39 253 41 231 44 209l0-1C47 179 51 153 58 130 65 106 75 83 88 60 95 48 102 39 108 32 114 25 120 20 127 16 134 12 141 9 148 6 154 3 160 2 167 3l17 2C206 12 223 27 236 49 248 70 260 97 271 130 274 141 278 155 282 173 286 190 289 214 292 243 293 253 294 263 294 273 294 283 294 294 294 306l0 28 0 48C294 393 294 405 295 416 295 427 294 438 293 449l-2 64-4 29C281 577 272 609 261 638 250 666 236 685 220 696M180 789C181 788 181 786 181 785 181 784 181 783 180 782 179 781 176 781 169 781l-4 3C162 785 159 787 157 788 155 789 153 791 151 794 148 797 145 800 141 805 136 809 132 813 128 818 123 822 120 826 117 830 114 834 112 837 112 840 112 843 113 845 114 847 115 848 119 849 124 849 127 849 130 849 132 848 133 847 136 845 139 842l1-1C147 831 154 822 161 815 167 807 173 798 180 789z" unicode="Ò"></glyph>
    <glyph d="M236 708C247 699 258 686 269 671 280 655 287 637 291 616 296 591 301 569 304 550 307 530 309 512 310 497 311 478 312 457 313 436 314 414 314 393 314 372 314 360 314 348 314 336 314 323 315 310 316 297 316 260 313 223 307 188 301 152 292 118 280 85l0-1C271 64 261 47 251 33 241 18 227 4 208-9 193-16 179-20 166-20 146-20 128-13 112 0 95 13 82 28 72 43 61 63 51 86 44 111 36 136 30 162 26 190 21 217 18 246 17 276 15 306 14 336 14 366 16 426 21 480 28 529 35 577 45 619 58 655 72 689 91 712 114 723 122 727 131 730 140 732 149 733 158 734 166 734 179 734 191 731 202 726 213 720 225 714 236 708M220 696C211 703 202 708 192 711 181 714 171 716 162 716 158 716 153 716 148 715 143 714 137 713 131 710 104 700 85 678 73 644 60 610 51 565 46 510 44 494 42 476 40 457 38 438 37 420 36 404 35 393 35 384 36 376 36 368 35 359 34 348l0-16C34 314 35 295 37 274 39 253 41 231 44 209l0-1C47 179 51 153 58 130 65 106 75 83 88 60 95 48 102 39 108 32 114 25 120 20 127 16 134 12 141 9 148 6 154 3 160 2 167 3l17 2C206 12 223 27 236 49 248 70 260 97 271 130 274 141 278 155 282 173 286 190 289 214 292 243 293 253 294 263 294 273 294 283 294 294 294 306l0 28 0 48C294 393 294 405 295 416 295 427 294 438 293 449l-2 64-4 29C281 577 272 609 261 638 250 666 236 685 220 696M199 839C199 835 197 831 193 827 189 822 184 817 178 812 172 807 166 801 160 795 153 788 148 781 143 773 142 772 140 771 136 771 133 771 131 774 131 781 136 790 141 799 146 806 151 813 156 819 161 826 166 832 170 836 174 839 176 840 179 842 182 843 185 844 187 844 189 844 191 844 193 844 196 843 198 842 199 840 199 839M263 839C263 835 261 831 257 827 253 822 248 817 242 812 236 807 230 801 224 795 217 788 212 781 207 773 206 772 204 771 201 771 198 771 196 774 196 781 201 790 206 799 211 806 216 813 220 819 225 826 230 832 234 836 238 839 240 840 243 842 246 843 249 844 251 844 254 844 256 844 258 844 260 843 262 842 263 840 263 839z" unicode="Ő"></glyph>
    <glyph d="M236 708C247 699 258 686 269 671 280 655 287 637 291 616 296 591 301 569 304 550 307 530 309 512 310 497 311 478 312 457 313 436 314 414 314 393 314 372 314 360 314 348 314 336 314 323 315 310 316 297 316 260 313 223 307 188 301 152 292 118 280 85l0-1C271 64 261 47 251 33 241 18 227 4 208-9 193-16 179-20 166-20 146-20 128-13 112 0 95 13 82 28 72 43 61 63 51 86 44 111 36 136 30 162 26 190 21 217 18 246 17 276 15 306 14 336 14 366 16 426 21 480 28 529 35 577 45 619 58 655 72 689 91 712 114 723 122 727 131 730 140 732 149 733 158 734 166 734 179 734 191 731 202 726 213 720 225 714 236 708M220 696C211 703 202 708 192 711 181 714 171 716 162 716 158 716 153 716 148 715 143 714 137 713 131 710 104 700 85 678 73 644 60 610 51 565 46 510 44 494 42 476 40 457 38 438 37 420 36 404 35 393 35 384 36 376 36 368 35 359 34 348l0-16C34 314 35 295 37 274 39 253 41 231 44 209l0-1C47 179 51 153 58 130 65 106 75 83 88 60 95 48 102 39 108 32 114 25 120 20 127 16 134 12 141 9 148 6 154 3 160 2 167 3l17 2C206 12 223 27 236 49 248 70 260 97 271 130 274 141 278 155 282 173 286 190 289 214 292 243 293 253 294 263 294 273 294 283 294 294 294 306l0 28 0 48C294 393 294 405 295 416 295 427 294 438 293 449l-2 64-4 29C281 577 272 609 261 638 250 666 236 685 220 696M226 800C227 798 229 796 230 795 231 794 231 791 231 788 231 786 231 785 230 785 229 784 228 783 227 781 222 782 212 783 197 784 182 784 165 784 147 784l-23 0C119 784 116 785 115 787 114 788 113 791 113 794 113 795 114 797 117 799 120 801 125 802 132 802 137 802 147 802 161 802 174 802 187 802 198 803 209 803 219 802 226 800z" unicode="Ō"></glyph>
    <glyph d="M236 708C247 699 258 686 269 671 280 655 287 637 291 616 296 591 301 569 304 550 307 530 309 512 310 497 311 478 312 457 313 436 314 414 314 393 314 372 314 360 314 348 314 336 314 323 315 310 316 297 316 260 313 223 307 188 301 152 292 118 280 85l0-1C271 64 261 47 251 33 241 18 227 4 208-9 193-16 179-20 166-20 146-20 128-13 112 0 95 13 82 28 72 43 61 63 51 86 44 111 36 136 30 162 26 190 21 217 18 246 17 276 15 306 14 336 14 366 16 426 21 480 28 529 35 577 45 619 58 655 72 689 91 712 114 723 122 727 131 730 140 732 149 733 158 734 166 734 179 734 191 731 202 726 213 720 225 714 236 708M220 696C211 703 202 708 192 711 181 714 171 716 162 716 158 716 153 716 148 715 143 714 137 713 131 710 104 700 85 678 73 644 60 610 51 565 46 510 44 494 42 476 40 457 38 438 37 420 36 404 35 393 35 384 36 376 36 368 35 359 34 348l0-16C34 314 35 295 37 274 39 253 41 231 44 209l0-1C47 179 51 153 58 130 65 106 75 83 88 60 95 48 102 39 108 32 114 25 120 20 127 16 134 12 141 9 148 6 154 3 160 2 167 3l17 2C206 12 223 27 236 49 248 70 260 97 271 130 274 141 278 155 282 173 286 190 289 214 292 243 293 253 294 263 294 273 294 283 294 294 294 306l0 28 0 48C294 393 294 405 295 416 295 427 294 438 293 449l-2 64-4 29C281 577 272 609 261 638 250 666 236 685 220 696M127 275C138 316 148 351 155 380 162 409 168 437 174 462 180 487 187 513 195 539 202 564 212 594 224 628 227 639 229 650 232 661 234 672 236 683 239 693 242 703 245 712 249 720 252 728 257 734 262 738 267 735 270 731 271 727 268 704 263 680 257 656 250 631 243 608 236 585l-14-44C213 513 204 482 195 448 186 413 177 378 168 341 159 304 149 266 140 229 131 191 121 155 111 121 110 114 108 105 106 94 104 83 102 71 99 58 96 45 93 33 90 21 87 8 83-2 79-11 75-10 71-8 67-4 62 0 60 5 60 12 63 21 66 29 67 38 68 46 70 55 71 64l21 80C96 157 100 170 104 183 107 196 111 209 114 221 117 233 120 244 123 254 125 263 126 271 127 276z" unicode="Ø"></glyph>
    <glyph d="M236 708C247 699 258 686 269 671 280 655 287 637 291 616 296 591 301 569 304 550 307 530 309 512 310 497 311 478 312 457 313 436 314 414 314 393 314 372 314 360 314 348 314 336 314 323 315 310 316 297 316 260 313 223 307 188 301 152 292 118 280 85l0-1C271 64 261 47 251 33 241 18 227 4 208-9 193-16 179-20 166-20 146-20 128-13 112 0 95 13 82 28 72 43 61 63 51 86 44 111 36 136 30 162 26 190 21 217 18 246 17 276 15 306 14 336 14 366 16 426 21 480 28 529 35 577 45 619 58 655 72 689 91 712 114 723 122 727 131 730 140 732 149 733 158 734 166 734 179 734 191 731 202 726 213 720 225 714 236 708M220 696C211 703 202 708 192 711 181 714 171 716 162 716 158 716 153 716 148 715 143 714 137 713 131 710 104 700 85 678 73 644 60 610 51 565 46 510 44 494 42 476 40 457 38 438 37 420 36 404 35 393 35 384 36 376 36 368 35 359 34 348l0-16C34 314 35 295 37 274 39 253 41 231 44 209l0-1C47 179 51 153 58 130 65 106 75 83 88 60 95 48 102 39 108 32 114 25 120 20 127 16 134 12 141 9 148 6 154 3 160 2 167 3l17 2C206 12 223 27 236 49 248 70 260 97 271 130 274 141 278 155 282 173 286 190 289 214 292 243 293 253 294 263 294 273 294 283 294 294 294 306l0 28 0 48C294 393 294 405 295 416 295 427 294 438 293 449l-2 64-4 29C281 577 272 609 261 638 250 666 236 685 220 696M127 275C138 316 148 351 155 380 162 409 168 437 174 462 180 487 187 513 195 539 202 564 212 594 224 628 227 639 229 650 232 661 234 672 236 683 239 693 242 703 245 712 249 720 252 728 257 734 262 738 267 735 270 731 271 727 268 704 263 680 257 656 250 631 243 608 236 585l-14-44C213 513 204 482 195 448 186 413 177 378 168 341 159 304 149 266 140 229 131 191 121 155 111 121 110 114 108 105 106 94 104 83 102 71 99 58 96 45 93 33 90 21 87 8 83-2 79-11 75-10 71-8 67-4 62 0 60 5 60 12 63 21 66 29 67 38 68 46 70 55 71 64l21 80C96 157 100 170 104 183 107 196 111 209 114 221 117 233 120 244 123 254 125 263 126 271 127 276M238 853C238 849 236 845 232 840 228 835 223 830 218 825 213 819 207 813 201 806 195 799 190 791 185 782 184 780 182 779 180 779 178 778 176 778 175 778 172 778 171 780 170 783 169 786 169 788 170 790 170 790 172 793 175 799 178 804 181 811 186 818 190 825 194 832 199 839 204 846 208 850 212 853 217 857 223 859 228 859 230 859 232 858 235 857 237 856 238 854 238 853z" unicode="Ǿ"></glyph>
    <glyph d="M216 782C210 777 203 775 195 775 187 775 180 777 175 780 169 783 164 787 159 792 154 796 149 800 145 803 140 806 136 808 132 808 127 808 123 807 121 804 118 801 116 798 115 795 113 791 111 788 109 785 106 782 103 781 99 781 96 781 94 782 94 784 94 799 98 811 107 818 115 825 124 829 133 829 139 829 144 827 149 824 154 821 158 817 163 813 168 809 172 805 177 802 182 799 187 797 193 797 201 797 207 800 212 805 217 810 219 816 219 823l0 6C219 832 220 833 223 833 226 833 229 831 232 827 235 823 236 819 236 816 236 803 229 792 216 782M236 708C247 699 258 686 269 671 280 655 287 637 291 616 296 591 301 569 304 550 307 530 309 512 310 497 311 478 312 457 313 436 314 414 314 393 314 372 314 360 314 348 314 336 314 323 315 310 316 297 316 260 313 223 307 188 301 152 292 118 280 85l0-1C271 64 261 47 251 33 241 18 227 4 208-9 193-16 179-20 166-20 146-20 128-13 112 0 95 13 82 28 72 43 61 63 51 86 44 111 36 136 30 162 26 190 21 217 18 246 17 276 15 306 14 336 14 366 16 426 21 480 28 529 35 577 45 619 58 655 72 689 91 712 114 723 122 727 131 730 140 732 149 733 158 734 166 734 179 734 191 731 202 726 213 720 225 714 236 708M220 696C211 703 202 708 192 711 181 714 171 716 162 716 158 716 153 716 148 715 143 714 137 713 131 710 104 700 85 678 73 644 60 610 51 565 46 510 44 494 42 476 40 457 38 438 37 420 36 404 35 393 35 384 36 376 36 368 35 359 34 348l0-16C34 314 35 295 37 274 39 253 41 231 44 209l0-1C47 179 51 153 58 130 65 106 75 83 88 60 95 48 102 39 108 32 114 25 120 20 127 16 134 12 141 9 148 6 154 3 160 2 167 3l17 2C206 12 223 27 236 49 248 70 260 97 271 130 274 141 278 155 282 173 286 190 289 214 292 243 293 253 294 263 294 273 294 283 294 294 294 306l0 28 0 48C294 393 294 405 295 416 295 427 294 438 293 449l-2 64-4 29C281 577 272 609 261 638 250 666 236 685 220 696z" unicode="Õ"></glyph>
    <glyph d="M123 720C134 717 144 713 153 707 162 701 169 692 175 680 181 668 186 652 189 633 192 614 194 589 194 560l0-11C194 545 194 538 194 528 193 518 193 500 193 473l0-29C193 411 190 383 183 361 176 339 168 321 158 308 148 295 137 285 126 280 115 275 104 272 94 272 86 272 72 275 53 280l0-141C54 132 54 124 54 117 54 110 54 102 54 95l0-46-1-47-4-4C46-2 42-1 39 1 35 2 33 5 33 9l-2 141C31 159 31 168 30 175 29 182 29 189 29 196 29 199 29 202 30 205 30 208 30 211 30 214l0 45C30 286 30 319 29 357 28 394 28 436 28 482 28 499 28 515 29 531 29 547 29 563 29 578l0 71C29 655 29 661 29 668 28 675 28 681 28 686l0 27C29 715 31 716 36 717 41 717 45 717 49 717l9 0C63 717 70 718 79 720 88 721 96 722 103 722 107 722 111 722 114 722 117 721 120 721 123 720M50 445C49 427 50 409 51 392 52 374 52 357 53 340l1-33C67 298 79 294 90 294 108 294 122 299 133 310 143 321 151 334 157 351 162 368 166 386 168 407 169 428 170 448 170 467l0 8C170 480 170 485 170 492 170 498 170 504 171 510 171 516 171 521 172 525 172 528 172 530 172 530l0 7C172 592 168 634 160 661 152 688 134 701 107 701 104 701 100 701 96 700 91 699 87 699 83 699l-33-4z" unicode="P"></glyph>
    <glyph d="M338 456C339 449 339 442 339 435 339 428 339 420 339 413l-2-116C333 223 321 156 300 97l-4-10C295 85 294 83 294 81 293 78 292 75 289 72l0-11C296 50 303 39 309 29 314 19 319 8 324-3l0-3C323-7 320-8 315-8 315-9 314-10 311-11 308-12 307-13 306-13 305-13 304-10 301-5 298 0 294 6 291 13 288 20 284 26 281 32 277 37 274 41 272 42l0-4C262 23 248 9 231-2 214-13 194-19 173-19l-6 0C137-19 112-10 93 9 74 28 58 51 47 79 36 106 28 135 23 166 18 197 15 224 14 248l0 1C13 256 13 261 12 265 11 268 11 273 11 278 10 283 10 289 10 298 9 306 9 318 9 333l0 35C9 377 9 388 10 399 10 410 11 420 12 430l4 58C16 491 16 493 17 495 18 497 18 499 18 502 22 535 27 565 33 594 38 622 46 647 57 668 67 689 80 706 97 719 113 731 134 738 159 739l5 0C191 739 216 731 237 714 258 697 275 674 290 647 304 620 315 589 323 556 331 522 336 489 338 456M326-3C326-5 326-6 325-6l-1 3 1 1C326-3 326-3 326-3M300 555C293 589 284 617 271 640 258 663 244 680 229 693 214 705 198 713 182 717 165 721 150 722 135 719l-4-1C119 711 108 702 98 693 87 683 78 669 71 652 66 645 61 632 57 613 53 594 49 572 46 547 43 522 40 496 38 469 35 442 33 417 32 394l0-5C32 388 32 386 32 385 31 383 31 380 31 377l0-16C31 354 31 345 32 334 32 323 32 308 32 291l0-1C35 249 39 210 45 175 51 140 60 109 71 84 82 58 95 38 112 23 128 8 147 1 169 1 186 1 202 5 217 13 232 21 246 36 260 59l0 10C255 79 248 90 241 103 233 116 226 128 219 140 212 151 206 162 201 171 196 180 193 187 193 190l0 2 0 2 0-1 1 1C195 194 196 197 197 202 198 207 199 209 200 209 200 209 200 209 201 208l0-3C216 189 230 170 243 149 256 127 267 106 276 87 277 88 277 89 278 90 279 91 280 93 281 94l6 17C298 142 305 176 308 213 311 250 314 287 316 323l0 1C316 327 316 329 317 331 317 333 317 335 317 337l0 13C317 354 317 358 318 362 318 365 318 369 318 372l0 20C318 424 316 453 313 479 310 504 305 530 300 555M193 192l0 1M194 193C193 192 193 192 193 192z" unicode="Q"></glyph>
    <glyph d="M160 680C165 669 169 657 172 646 175 635 177 624 178 615l3-18C183 585 184 572 184 558 183 543 183 522 184 495 184 485 184 476 184 467 184 458 184 445 183 427l0-6C183 410 182 399 180 386 178 373 175 361 171 349 167 337 162 327 157 318 151 309 145 304 138 301 134 300 132 296 132 291 132 286 134 277 137 264 143 239 149 217 154 198 159 179 164 158 171 133l0-1C177 111 182 92 187 75 192 58 197 37 202 14l0-4C202 9 202 8 203 8 203 7 203 6 203 5l0-4C202-1 198-2 193-2 189-2 184 6 179 22 173 38 167 56 162 77 156 97 151 117 147 137 142 156 139 170 137 178l-28 113C106 290 102 289 95 289 85 289 70 291 49 295l3-173C53 104 53 88 53 73 52 58 53 42 54 27l0-7C54 7 53-1 51-4 46-4 42-4 38-3 33-3 31-2 30-1l0 144C30 153 30 163 30 172 29 181 29 191 29 200l0 1C28 216 27 234 28 254 29 273 28 291 26 307l0 77C26 398 26 412 27 426 27 439 27 453 27 467l0 81C27 562 27 576 27 591 27 605 27 619 26 632l-1 71C26 716 29 723 36 723 43 723 49 723 54 722 59 721 67 721 77 721 78 721 81 721 84 721 87 721 94 720 105 719 121 715 133 710 141 705 148 699 155 691 160 680M160 601C154 650 142 678 124 687l-21 11C100 698 95 699 89 700 83 701 77 702 70 702 59 702 52 700 47 695l0-13C47 674 47 667 48 661 49 654 49 647 48 640 48 631 48 621 48 612 47 602 47 592 47 583l0-52C47 521 47 511 48 502 48 492 48 482 48 472l2-88 0-65 16-4C69 314 75 313 82 312l13 0C109 312 121 316 130 325 139 334 146 345 151 360 156 375 159 391 161 410 162 429 163 448 163 468 163 483 163 497 163 512 163 526 163 539 163 551 162 563 162 573 162 582 161 591 161 597 160 601z" unicode="R"></glyph>
    <glyph d="M160 680C165 669 169 657 172 646 175 635 177 624 178 615l3-18C183 585 184 572 184 558 183 543 183 522 184 495 184 485 184 476 184 467 184 458 184 445 183 427l0-6C183 410 182 399 180 386 178 373 175 361 171 349 167 337 162 327 157 318 151 309 145 304 138 301 134 300 132 296 132 291 132 286 134 277 137 264 143 239 149 217 154 198 159 179 164 158 171 133l0-1C177 111 182 92 187 75 192 58 197 37 202 14l0-4C202 9 202 8 203 8 203 7 203 6 203 5l0-4C202-1 198-2 193-2 189-2 184 6 179 22 173 38 167 56 162 77 156 97 151 117 147 137 142 156 139 170 137 178l-28 113C106 290 102 289 95 289 85 289 70 291 49 295l3-173C53 104 53 88 53 73 52 58 53 42 54 27l0-7C54 7 53-1 51-4 46-4 42-4 38-3 33-3 31-2 30-1l0 144C30 153 30 163 30 172 29 181 29 191 29 200l0 1C28 216 27 234 28 254 29 273 28 291 26 307l0 77C26 398 26 412 27 426 27 439 27 453 27 467l0 81C27 562 27 576 27 591 27 605 27 619 26 632l-1 71C26 716 29 723 36 723 43 723 49 723 54 722 59 721 67 721 77 721 78 721 81 721 84 721 87 721 94 720 105 719 121 715 133 710 141 705 148 699 155 691 160 680M160 601C154 650 142 678 124 687l-21 11C100 698 95 699 89 700 83 701 77 702 70 702 59 702 52 700 47 695l0-13C47 674 47 667 48 661 49 654 49 647 48 640 48 631 48 621 48 612 47 602 47 592 47 583l0-52C47 521 47 511 48 502 48 492 48 482 48 472l2-88 0-65 16-4C69 314 75 313 82 312l13 0C109 312 121 316 130 325 139 334 146 345 151 360 156 375 159 391 161 410 162 429 163 448 163 468 163 483 163 497 163 512 163 526 163 539 163 551 162 563 162 573 162 582 161 591 161 597 160 601M82 790C72 800 64 808 57 815 50 821 44 830 37 841 38 846 40 848 44 848l3 0 10-5C66 834 74 827 80 820 86 813 94 805 103 796 108 802 112 807 116 811 119 814 123 817 126 820 129 823 133 826 137 829 140 832 145 837 150 843 153 846 157 848 162 848 166 848 168 847 168 844 168 842 168 841 167 840 163 833 159 828 156 825 153 821 150 818 147 815 144 812 140 809 137 806 133 803 129 798 125 792 122 788 118 784 113 780 108 775 105 773 104 773 101 773 97 775 94 779 90 782 86 786 82 790z" unicode="Ř"></glyph>
    <glyph d="M167 247C172 228 177 208 181 189 184 170 186 150 186 130l0-9C186 118 186 114 186 110 186 105 186 101 185 98 184 88 181 77 178 66 175 55 171 44 166 33 161 22 155 13 149 5 142-3 136-8 130-11 123-14 116-16 107-16 89-16 72-9 57 6 41 21 30 44 24 76 21 95 19 113 18 132 17 151 16 170 16 189l0 15C16 206 16 210 17 215 17 220 17 226 18 231 19 236 20 240 21 244 22 248 24 250 26 250 28 250 30 250 33 249 35 248 37 246 38 244l0-24C38 217 38 215 38 212 37 209 37 206 37 203l0-28C37 164 38 153 39 142 40 131 41 121 42 110 43 101 45 91 47 82 49 72 51 63 54 54 57 45 60 38 64 31 67 24 71 20 76 17 79 14 83 11 87 9 90 7 94 6 97 6 110 6 124 14 137 29 150 44 158 66 161 96 162 101 163 107 163 112 163 117 163 124 163 133 163 163 158 193 149 223 139 253 129 280 120 305 117 310 115 316 114 321 112 326 110 329 109 332l0 1C102 348 96 362 91 373 85 384 79 395 74 404 65 420 56 436 48 453 39 470 32 487 27 506 22 529 19 551 19 574 19 597 22 621 29 646 35 671 42 692 51 707 56 714 60 720 65 723 69 726 76 729 86 730l4 0C91 730 91 730 92 731 93 731 94 731 95 731 104 731 113 730 121 727 128 724 135 718 141 711 163 677 174 632 174 575l0-5C174 565 170 562 163 562 160 562 159 562 159 563 157 580 155 597 152 612 149 627 146 643 142 658l0 1C129 692 113 709 94 709 91 709 88 708 85 707 82 706 78 702 74 697 69 692 64 685 61 676 57 667 54 656 51 645 48 633 47 621 46 608 45 595 44 582 43 570l0-4C43 537 47 513 55 494 63 474 72 455 82 438l15-29 14-25C120 365 130 346 140 327 149 307 157 286 163 263z" unicode="S"></glyph>
    <glyph d="M167 247C172 228 177 208 181 189 184 170 186 150 186 130l0-9C186 118 186 114 186 110 186 105 186 101 185 98 184 88 181 77 178 66 175 55 171 44 166 33 161 22 155 13 149 5 142-3 136-8 130-11 123-14 116-16 107-16 89-16 72-9 57 6 41 21 30 44 24 76 21 95 19 113 18 132 17 151 16 170 16 189l0 15C16 206 16 210 17 215 17 220 17 226 18 231 19 236 20 240 21 244 22 248 24 250 26 250 28 250 30 250 33 249 35 248 37 246 38 244l0-24C38 217 38 215 38 212 37 209 37 206 37 203l0-28C37 164 38 153 39 142 40 131 41 121 42 110 43 101 45 91 47 82 49 72 51 63 54 54 57 45 60 38 64 31 67 24 71 20 76 17 79 14 83 11 87 9 90 7 94 6 97 6 110 6 124 14 137 29 150 44 158 66 161 96 162 101 163 107 163 112 163 117 163 124 163 133 163 163 158 193 149 223 139 253 129 280 120 305 117 310 115 316 114 321 112 326 110 329 109 332l0 1C102 348 96 362 91 373 85 384 79 395 74 404 65 420 56 436 48 453 39 470 32 487 27 506 22 529 19 551 19 574 19 597 22 621 29 646 35 671 42 692 51 707 56 714 60 720 65 723 69 726 76 729 86 730l4 0C91 730 91 730 92 731 93 731 94 731 95 731 104 731 113 730 121 727 128 724 135 718 141 711 163 677 174 632 174 575l0-5C174 565 170 562 163 562 160 562 159 562 159 563 157 580 155 597 152 612 149 627 146 643 142 658l0 1C129 692 113 709 94 709 91 709 88 708 85 707 82 706 78 702 74 697 69 692 64 685 61 676 57 667 54 656 51 645 48 633 47 621 46 608 45 595 44 582 43 570l0-4C43 537 47 513 55 494 63 474 72 455 82 438l15-29 14-25C120 365 130 346 140 327 149 307 157 286 163 263M171 853C171 849 169 845 165 840 161 835 156 830 151 825 146 819 140 813 134 806 128 799 123 791 118 782 117 780 115 779 113 779 111 778 109 778 108 778 105 778 104 780 103 783 102 786 102 788 103 790 103 790 105 793 108 799 111 804 114 811 119 818 123 825 127 832 132 839 137 846 141 850 145 853 150 857 156 859 161 859 163 859 165 858 168 857 170 856 171 854 171 853z" unicode="Ś"></glyph>
    <glyph d="M167 247C172 228 177 208 181 189 184 170 186 150 186 130l0-9C186 118 186 114 186 110 186 105 186 101 185 98 184 88 181 77 178 66 175 55 171 44 166 33 161 22 155 13 149 5 142-3 136-8 130-11 123-14 116-16 107-16 89-16 72-9 57 6 41 21 30 44 24 76 21 95 19 113 18 132 17 151 16 170 16 189l0 15C16 206 16 210 17 215 17 220 17 226 18 231 19 236 20 240 21 244 22 248 24 250 26 250 28 250 30 250 33 249 35 248 37 246 38 244l0-24C38 217 38 215 38 212 37 209 37 206 37 203l0-28C37 164 38 153 39 142 40 131 41 121 42 110 43 101 45 91 47 82 49 72 51 63 54 54 57 45 60 38 64 31 67 24 71 20 76 17 79 14 83 11 87 9 90 7 94 6 97 6 110 6 124 14 137 29 150 44 158 66 161 96 162 101 163 107 163 112 163 117 163 124 163 133 163 163 158 193 149 223 139 253 129 280 120 305 117 310 115 316 114 321 112 326 110 329 109 332l0 1C102 348 96 362 91 373 85 384 79 395 74 404 65 420 56 436 48 453 39 470 32 487 27 506 22 529 19 551 19 574 19 597 22 621 29 646 35 671 42 692 51 707 56 714 60 720 65 723 69 726 76 729 86 730l4 0C91 730 91 730 92 731 93 731 94 731 95 731 104 731 113 730 121 727 128 724 135 718 141 711 163 677 174 632 174 575l0-5C174 565 170 562 163 562 160 562 159 562 159 563 157 580 155 597 152 612 149 627 146 643 142 658l0 1C129 692 113 709 94 709 91 709 88 708 85 707 82 706 78 702 74 697 69 692 64 685 61 676 57 667 54 656 51 645 48 633 47 621 46 608 45 595 44 582 43 570l0-4C43 537 47 513 55 494 63 474 72 455 82 438l15-29 14-25C120 365 130 346 140 327 149 307 157 286 163 263M81 790C71 800 63 808 56 815 49 821 43 830 36 841 37 846 39 848 43 848l3 0 10-5C65 834 73 827 79 820 85 813 93 805 102 796 107 802 111 807 115 811 118 814 122 817 125 820 128 823 132 826 136 829 139 832 144 837 149 843 152 846 156 848 161 848 165 848 167 847 167 844 167 842 167 841 166 840 162 833 158 828 155 825 152 821 149 818 146 815 143 812 139 809 136 806 132 803 128 798 124 792 121 788 117 784 112 780 107 775 104 773 103 773 100 773 96 775 93 779 89 782 85 786 81 790z" unicode="Š"></glyph>
    <glyph d="M167 247C172 228 177 208 181 189 184 170 186 150 186 130l0-9C186 118 186 114 186 110 186 105 186 101 185 98 184 88 181 77 178 66 175 55 171 44 166 33 161 22 155 13 149 5 142-3 136-8 130-11 123-14 116-16 107-16 89-16 72-9 57 6 41 21 30 44 24 76 21 95 19 113 18 132 17 151 16 170 16 189l0 15C16 206 16 210 17 215 17 220 17 226 18 231 19 236 20 240 21 244 22 248 24 250 26 250 28 250 30 250 33 249 35 248 37 246 38 244l0-24C38 217 38 215 38 212 37 209 37 206 37 203l0-28C37 164 38 153 39 142 40 131 41 121 42 110 43 101 45 91 47 82 49 72 51 63 54 54 57 45 60 38 64 31 67 24 71 20 76 17 79 14 83 11 87 9 90 7 94 6 97 6 110 6 124 14 137 29 150 44 158 66 161 96 162 101 163 107 163 112 163 117 163 124 163 133 163 163 158 193 149 223 139 253 129 280 120 305 117 310 115 316 114 321 112 326 110 329 109 332l0 1C102 348 96 362 91 373 85 384 79 395 74 404 65 420 56 436 48 453 39 470 32 487 27 506 22 529 19 551 19 574 19 597 22 621 29 646 35 671 42 692 51 707 56 714 60 720 65 723 69 726 76 729 86 730l4 0C91 730 91 730 92 731 93 731 94 731 95 731 104 731 113 730 121 727 128 724 135 718 141 711 163 677 174 632 174 575l0-5C174 565 170 562 163 562 160 562 159 562 159 563 157 580 155 597 152 612 149 627 146 643 142 658l0 1C129 692 113 709 94 709 91 709 88 708 85 707 82 706 78 702 74 697 69 692 64 685 61 676 57 667 54 656 51 645 48 633 47 621 46 608 45 595 44 582 43 570l0-4C43 537 47 513 55 494 63 474 72 455 82 438l15-29 14-25C120 365 130 346 140 327 149 307 157 286 163 263M135-38C138-41 139-46 139-51l0-6C139-66 137-76 134-85 131-95 122-103 107-108 103-111 98-112 93-112 89-112 85-111 81-110 77-109 73-107 70-106 67-104 64-101 61-98 58-95 56-92 56-88 56-87 56-85 57-84 57-83 58-81 60-78l21-12C83-91 85-91 88-91 95-91 102-89 109-84 116-79 120-72 122-62l0 2C122-59 122-57 122-56 121-55 121-54 121-52l-42-6C76-52 74-48 73-47 72-46 72-44 72-43 72-42 73-40 76-37 78-34 80-30 83-26 86-22 88-18 91-15 94-12 95-10 96-9l16 0-7-11C104-23 101-27 97-33 99-32 103-32 108-32 118-32 127-34 135-38z" unicode="Ş"></glyph>
    <glyph d="M167 247C172 228 177 208 181 189 184 170 186 150 186 130l0-9C186 118 186 114 186 110 186 105 186 101 185 98 184 88 181 77 178 66 175 55 171 44 166 33 161 22 155 13 149 5 142-3 136-8 130-11 123-14 116-16 107-16 89-16 72-9 57 6 41 21 30 44 24 76 21 95 19 113 18 132 17 151 16 170 16 189l0 15C16 206 16 210 17 215 17 220 17 226 18 231 19 236 20 240 21 244 22 248 24 250 26 250 28 250 30 250 33 249 35 248 37 246 38 244l0-24C38 217 38 215 38 212 37 209 37 206 37 203l0-28C37 164 38 153 39 142 40 131 41 121 42 110 43 101 45 91 47 82 49 72 51 63 54 54 57 45 60 38 64 31 67 24 71 20 76 17 79 14 83 11 87 9 90 7 94 6 97 6 110 6 124 14 137 29 150 44 158 66 161 96 162 101 163 107 163 112 163 117 163 124 163 133 163 163 158 193 149 223 139 253 129 280 120 305 117 310 115 316 114 321 112 326 110 329 109 332l0 1C102 348 96 362 91 373 85 384 79 395 74 404 65 420 56 436 48 453 39 470 32 487 27 506 22 529 19 551 19 574 19 597 22 621 29 646 35 671 42 692 51 707 56 714 60 720 65 723 69 726 76 729 86 730l4 0C91 730 91 730 92 731 93 731 94 731 95 731 104 731 113 730 121 727 128 724 135 718 141 711 163 677 174 632 174 575l0-5C174 565 170 562 163 562 160 562 159 562 159 563 157 580 155 597 152 612 149 627 146 643 142 658l0 1C129 692 113 709 94 709 91 709 88 708 85 707 82 706 78 702 74 697 69 692 64 685 61 676 57 667 54 656 51 645 48 633 47 621 46 608 45 595 44 582 43 570l0-4C43 537 47 513 55 494 63 474 72 455 82 438l15-29 14-25C120 365 130 346 140 327 149 307 157 286 163 263M75 842C79 847 83 852 87 855 91 858 95 860 98 860 100 860 103 858 108 853 113 848 117 844 120 840 124 834 128 830 132 827 135 824 139 821 142 818 145 815 148 811 151 808 154 804 158 799 162 792 163 791 163 790 163 788 163 785 161 783 157 783 153 783 149 785 145 789l-1 0C139 795 134 800 131 803 127 806 124 809 121 812 118 815 114 818 111 821 107 824 102 829 97 836 88 827 80 819 74 812 67 805 59 798 50 789l-10-5C39 784 38 784 37 783 34 783 31 786 30 791 37 802 44 811 51 816 58 821 66 830 74 841z" unicode="Ŝ"></glyph>
    <glyph d="M189 708l0-4-46 2C136 707 129 707 122 706 115 705 107 706 100 707l0-8C99 679 98 660 98 641 98 622 98 603 98 583 98 529 98 475 99 420 99 365 101 311 104 257l0-220C104 15 100 0 92-8l-1 0C90-8 90-8 90-7 89-7 88-7 87-7l-5 9C83 18 84 35 84 52 83 69 83 91 83 118l-1 61C82 216 81 254 80 295 78 335 77 374 78 411l0 105C78 529 78 544 79 561 79 577 79 591 79 603l0 70C79 678 79 684 79 691 79 697 78 702 77 706l-28 0-35-2-9 0C2 704-1 705-2 707-3 708-4 712-5 718-4 722 2 724 14 724 19 724 25 724 31 724 36 723 43 723 50 723 69 723 88 723 106 723 123 723 141 724 158 726 163 726 170 726 177 725 184 724 187 722 188 719z" unicode="T"></glyph>
    <glyph d="M189 708l0-4-46 2C136 707 129 707 122 706 115 705 107 706 100 707l0-8C99 679 98 660 98 641 98 622 98 603 98 583 98 529 98 475 99 420 99 365 101 311 104 257l0-220C104 15 100 0 92-8l-1 0C90-8 90-8 90-7 89-7 88-7 87-7l-5 9C83 18 84 35 84 52 83 69 83 91 83 118l-1 61C82 216 81 254 80 295 78 335 77 374 78 411l0 105C78 529 78 544 79 561 79 577 79 591 79 603l0 70C79 678 79 684 79 691 79 697 78 702 77 706l-28 0-35-2-9 0C2 704-1 705-2 707-3 708-4 712-5 718-4 722 2 724 14 724 19 724 25 724 31 724 36 723 43 723 50 723 69 723 88 723 106 723 123 723 141 724 158 726 163 726 170 726 177 725 184 724 187 722 188 719M147 380C148 378 150 376 151 375 152 374 152 371 152 368 152 366 152 365 151 365 150 364 149 363 148 361 143 362 133 363 118 364 103 364 86 364 68 364l-23 0C40 364 37 365 36 367 35 368 34 371 34 374 34 375 35 377 38 379 41 381 46 382 53 382 58 382 68 382 82 382 95 382 108 382 119 383 130 383 140 382 147 380z" unicode="Ŧ"></glyph>
    <glyph d="M189 708l0-4-46 2C136 707 129 707 122 706 115 705 107 706 100 707l0-8C99 679 98 660 98 641 98 622 98 603 98 583 98 529 98 475 99 420 99 365 101 311 104 257l0-220C104 15 100 0 92-8l-1 0C90-8 90-8 90-7 89-7 88-7 87-7l-5 9C83 18 84 35 84 52 83 69 83 91 83 118l-1 61C82 216 81 254 80 295 78 335 77 374 78 411l0 105C78 529 78 544 79 561 79 577 79 591 79 603l0 70C79 678 79 684 79 691 79 697 78 702 77 706l-28 0-35-2-9 0C2 704-1 705-2 707-3 708-4 712-5 718-4 722 2 724 14 724 19 724 25 724 31 724 36 723 43 723 50 723 69 723 88 723 106 723 123 723 141 724 158 726 163 726 170 726 177 725 184 724 187 722 188 719M72 790C62 800 54 808 47 815 40 821 34 830 27 841 28 846 30 848 34 848l3 0 10-5C56 834 64 827 70 820 76 813 84 805 93 796 98 802 102 807 106 811 109 814 113 817 116 820 119 823 123 826 127 829 130 832 135 837 140 843 143 846 147 848 152 848 156 848 158 847 158 844 158 842 158 841 157 840 153 833 149 828 146 825 143 821 140 818 137 815 134 812 130 809 127 806 123 803 119 798 115 792 112 788 108 784 103 780 98 775 95 773 94 773 91 773 87 775 84 779 80 782 76 786 72 790z" unicode="Ť"></glyph>
    <glyph d="M189 708l0-4-46 2C136 707 129 707 122 706 115 705 107 706 100 707l0-8C99 679 98 660 98 641 98 622 98 603 98 583 98 529 98 475 99 420 99 365 101 311 104 257l0-220C104 15 100 0 92-8l-1 0C90-8 90-8 90-7 89-7 88-7 87-7l-5 9C83 18 84 35 84 52 83 69 83 91 83 118l-1 61C82 216 81 254 80 295 78 335 77 374 78 411l0 105C78 529 78 544 79 561 79 577 79 591 79 603l0 70C79 678 79 684 79 691 79 697 78 702 77 706l-28 0-35-2-9 0C2 704-1 705-2 707-3 708-4 712-5 718-4 722 2 724 14 724 19 724 25 724 31 724 36 723 43 723 50 723 69 723 88 723 106 723 123 723 141 724 158 726 163 726 170 726 177 725 184 724 187 722 188 719M97-46C98-45 100-45 101-45 105-45 108-48 109-55 110-62 110-68 110-74 110-79 110-85 109-90 108-95 105-101 102-108 99-113 95-120 89-127 82-135 76-139 71-139 67-139 65-137 65-132 65-131 66-129 67-128l2 3C76-116 82-108 85-103 88-98 90-90 90-79 90-75 89-72 86-70 83-69 82-66 82-62 82-53 87-47 97-46z" unicode="Ţ"></glyph>
    <glyph d="M123 590C133 587 142 584 151 579 159 574 166 567 173 557 180 547 185 534 189 517 192 500 194 478 194 451l0-16C194 428 194 417 194 404 193 391 193 371 193 344l0-29C193 287 191 262 186 241 181 220 174 202 166 188 157 173 148 162 138 155 127 148 117 144 107 144 100 144 93 145 85 147 77 148 66 151 53 155l0-10C53 134 53 124 53 114 52 103 52 93 52 82l0-2C53 77 53 74 53 73 53 72 53 71 53 70l0-2C54 65 54 63 54 60 54 57 54 49 54 38l0-35-4-4C47-1 43 0 39 2 35 3 33 6 32 10l-2 74C29 89 29 95 29 100 28 105 28 109 28 113 28 114 28 116 29 118 29 120 29 122 29 123l0 31C29 160 29 166 30 172 30 177 30 184 30 191 30 203 30 213 30 221 29 229 29 238 29 249 29 259 29 272 29 288 28 304 28 326 28 353 28 370 28 386 29 402 29 418 29 433 29 448l0 71C29 526 29 532 29 537 28 542 28 548 28 553l-2 124C26 687 26 696 25 704 24 712 23 721 23 730 24 735 27 737 34 737 39 737 43 734 45 729 47 724 48 717 48 710 48 709 48 708 48 707 47 706 47 704 47 703l2-7 0-109 9 0C63 587 70 588 79 590 88 591 96 592 103 592 107 592 111 592 114 592 117 591 120 591 123 590M50 316C50 279 51 244 53 211l2-30C69 173 81 169 91 169 96 169 104 171 115 176 126 180 137 189 148 202 153 209 158 217 161 228 164 238 166 249 167 261 168 273 169 286 170 299 170 312 170 325 170 337l0 9C170 356 170 365 170 373 170 381 170 389 171 396l0 1C171 403 171 409 172 415 172 420 172 426 172 431 172 482 168 518 159 540 150 561 132 572 107 572 104 572 100 572 96 571 91 570 87 570 83 570l-30-4 0-15C53 530 52 505 50 477z" unicode="Þ"></glyph>
    <glyph d="M210 455C210 435 211 415 212 395 213 374 213 355 213 336l0-84C213 237 213 219 214 200 214 180 214 160 213 140 212 120 210 100 208 81 205 62 201 45 196 30 190 15 182 3 173-6 163-15 151-20 136-20 112-20 93-11 79 7 65 25 54 48 47 75 39 102 34 131 32 163 30 195 29 225 29 254l0 19C29 277 29 281 29 286 28 290 28 294 28 298l0 26C28 358 28 392 29 425 30 458 30 493 30 531l0 26C30 572 30 586 30 601 29 615 29 629 29 644l0 38C29 684 29 687 29 691 29 695 29 699 30 703 30 707 31 711 32 714 33 717 35 718 38 718 41 718 45 717 48 715 51 712 53 710 53 709l0-11C53 668 53 638 52 609 51 580 51 550 51 520l0-118C51 380 51 355 52 328 53 300 53 275 52 253l0-30C52 205 53 186 54 167 55 148 56 129 59 112 62 95 65 79 70 66 75 52 80 41 87 34l8-9C101 17 107 12 113 10 118 8 125 7 132 7 133 7 135 7 138 7 140 7 142 8 143 9l8 4C160 17 168 26 173 39 178 52 182 68 185 86 188 104 189 123 190 144 191 164 191 184 191 203l0 234C191 452 191 468 191 483 190 498 190 513 190 528l0 15C190 548 190 553 191 558 191 562 191 566 191 570l0 25C191 600 191 606 191 612 190 618 190 625 189 634l0 7C188 647 188 653 188 659 187 664 187 670 187 677 187 680 187 683 187 686 187 688 187 691 188 694l0 1C188 696 189 700 190 705 191 710 191 712 192 712l4 1C202 713 206 707 208 696 210 684 211 671 211 658 211 653 211 647 211 642 210 637 210 631 210 626l0-171z" unicode="U"></glyph>
    <glyph d="M210 455C210 435 211 415 212 395 213 374 213 355 213 336l0-84C213 237 213 219 214 200 214 180 214 160 213 140 212 120 210 100 208 81 205 62 201 45 196 30 190 15 182 3 173-6 163-15 151-20 136-20 112-20 93-11 79 7 65 25 54 48 47 75 39 102 34 131 32 163 30 195 29 225 29 254l0 19C29 277 29 281 29 286 28 290 28 294 28 298l0 26C28 358 28 392 29 425 30 458 30 493 30 531l0 26C30 572 30 586 30 601 29 615 29 629 29 644l0 38C29 684 29 687 29 691 29 695 29 699 30 703 30 707 31 711 32 714 33 717 35 718 38 718 41 718 45 717 48 715 51 712 53 710 53 709l0-11C53 668 53 638 52 609 51 580 51 550 51 520l0-118C51 380 51 355 52 328 53 300 53 275 52 253l0-30C52 205 53 186 54 167 55 148 56 129 59 112 62 95 65 79 70 66 75 52 80 41 87 34l8-9C101 17 107 12 113 10 118 8 125 7 132 7 133 7 135 7 138 7 140 7 142 8 143 9l8 4C160 17 168 26 173 39 178 52 182 68 185 86 188 104 189 123 190 144 191 164 191 184 191 203l0 234C191 452 191 468 191 483 190 498 190 513 190 528l0 15C190 548 190 553 191 558 191 562 191 566 191 570l0 25C191 600 191 606 191 612 190 618 190 625 189 634l0 7C188 647 188 653 188 659 187 664 187 670 187 677 187 680 187 683 187 686 187 688 187 691 188 694l0 1C188 696 189 700 190 705 191 710 191 712 192 712l4 1C202 713 206 707 208 696 210 684 211 671 211 658 211 653 211 647 211 642 210 637 210 631 210 626l0-171M172 850C172 846 170 842 166 837 162 832 157 827 152 822 147 816 141 810 135 803 129 796 124 788 119 779 118 777 116 776 114 776 112 775 110 775 109 775 106 775 105 777 104 780 103 783 103 785 104 787 104 787 106 790 109 796 112 801 115 808 120 815 124 822 128 829 133 836 138 843 142 847 146 850 151 854 157 856 162 856 164 856 166 855 169 854 171 853 172 851 172 850z" unicode="Ú"></glyph>
    <glyph d="M210 455C210 435 211 415 212 395 213 374 213 355 213 336l0-84C213 237 213 219 214 200 214 180 214 160 213 140 212 120 210 100 208 81 205 62 201 45 196 30 190 15 182 3 173-6 163-15 151-20 136-20 112-20 93-11 79 7 65 25 54 48 47 75 39 102 34 131 32 163 30 195 29 225 29 254l0 19C29 277 29 281 29 286 28 290 28 294 28 298l0 26C28 358 28 392 29 425 30 458 30 493 30 531l0 26C30 572 30 586 30 601 29 615 29 629 29 644l0 38C29 684 29 687 29 691 29 695 29 699 30 703 30 707 31 711 32 714 33 717 35 718 38 718 41 718 45 717 48 715 51 712 53 710 53 709l0-11C53 668 53 638 52 609 51 580 51 550 51 520l0-118C51 380 51 355 52 328 53 300 53 275 52 253l0-30C52 205 53 186 54 167 55 148 56 129 59 112 62 95 65 79 70 66 75 52 80 41 87 34l8-9C101 17 107 12 113 10 118 8 125 7 132 7 133 7 135 7 138 7 140 7 142 8 143 9l8 4C160 17 168 26 173 39 178 52 182 68 185 86 188 104 189 123 190 144 191 164 191 184 191 203l0 234C191 452 191 468 191 483 190 498 190 513 190 528l0 15C190 548 190 553 191 558 191 562 191 566 191 570l0 25C191 600 191 606 191 612 190 618 190 625 189 634l0 7C188 647 188 653 188 659 187 664 187 670 187 677 187 680 187 683 187 686 187 688 187 691 188 694l0 1C188 696 189 700 190 705 191 710 191 712 192 712l4 1C202 713 206 707 208 696 210 684 211 671 211 658 211 653 211 647 211 642 210 637 210 631 210 626l0-171M96 803C101 800 106 799 109 798 112 797 116 797 121 797 122 797 124 797 129 797 133 796 138 797 144 799 149 800 154 803 159 808 164 813 167 820 169 830 170 838 173 842 179 842 183 842 185 839 185 833 185 818 180 804 169 792 158 780 140 774 117 774 110 774 103 776 96 780 89 783 82 788 77 794 72 799 67 805 64 812 61 819 59 825 59 831 59 836 62 839 67 839 70 839 72 838 74 835 75 832 77 829 78 825 79 821 81 817 84 813 87 809 91 806 96 803z" unicode="Ŭ"></glyph>
    <glyph d="M210 455C210 435 211 415 212 395 213 374 213 355 213 336l0-84C213 237 213 219 214 200 214 180 214 160 213 140 212 120 210 100 208 81 205 62 201 45 196 30 190 15 182 3 173-6 163-15 151-20 136-20 112-20 93-11 79 7 65 25 54 48 47 75 39 102 34 131 32 163 30 195 29 225 29 254l0 19C29 277 29 281 29 286 28 290 28 294 28 298l0 26C28 358 28 392 29 425 30 458 30 493 30 531l0 26C30 572 30 586 30 601 29 615 29 629 29 644l0 38C29 684 29 687 29 691 29 695 29 699 30 703 30 707 31 711 32 714 33 717 35 718 38 718 41 718 45 717 48 715 51 712 53 710 53 709l0-11C53 668 53 638 52 609 51 580 51 550 51 520l0-118C51 380 51 355 52 328 53 300 53 275 52 253l0-30C52 205 53 186 54 167 55 148 56 129 59 112 62 95 65 79 70 66 75 52 80 41 87 34l8-9C101 17 107 12 113 10 118 8 125 7 132 7 133 7 135 7 138 7 140 7 142 8 143 9l8 4C160 17 168 26 173 39 178 52 182 68 185 86 188 104 189 123 190 144 191 164 191 184 191 203l0 234C191 452 191 468 191 483 190 498 190 513 190 528l0 15C190 548 190 553 191 558 191 562 191 566 191 570l0 25C191 600 191 606 191 612 190 618 190 625 189 634l0 7C188 647 188 653 188 659 187 664 187 670 187 677 187 680 187 683 187 686 187 688 187 691 188 694l0 1C188 696 189 700 190 705 191 710 191 712 192 712l4 1C202 713 206 707 208 696 210 684 211 671 211 658 211 653 211 647 211 642 210 637 210 631 210 626l0-171M97 842C101 847 105 852 109 855 113 858 117 860 120 860 122 860 125 858 130 853 135 848 139 844 142 840 146 834 150 830 154 827 157 824 161 821 164 818 167 815 170 811 173 808 176 804 180 799 184 792 185 791 185 790 185 788 185 785 183 783 179 783 175 783 171 785 167 789l-1 0C161 795 156 800 153 803 149 806 146 809 143 812 140 815 136 818 133 821 129 824 124 829 119 836 110 827 102 819 96 812 89 805 81 798 72 789l-10-5C61 784 60 784 59 783 56 783 53 786 52 791 59 802 66 811 73 816 80 821 88 830 96 841z" unicode="Û"></glyph>
    <glyph d="M210 455C210 435 211 415 212 395 213 374 213 355 213 336l0-84C213 237 213 219 214 200 214 180 214 160 213 140 212 120 210 100 208 81 205 62 201 45 196 30 190 15 182 3 173-6 163-15 151-20 136-20 112-20 93-11 79 7 65 25 54 48 47 75 39 102 34 131 32 163 30 195 29 225 29 254l0 19C29 277 29 281 29 286 28 290 28 294 28 298l0 26C28 358 28 392 29 425 30 458 30 493 30 531l0 26C30 572 30 586 30 601 29 615 29 629 29 644l0 38C29 684 29 687 29 691 29 695 29 699 30 703 30 707 31 711 32 714 33 717 35 718 38 718 41 718 45 717 48 715 51 712 53 710 53 709l0-11C53 668 53 638 52 609 51 580 51 550 51 520l0-118C51 380 51 355 52 328 53 300 53 275 52 253l0-30C52 205 53 186 54 167 55 148 56 129 59 112 62 95 65 79 70 66 75 52 80 41 87 34l8-9C101 17 107 12 113 10 118 8 125 7 132 7 133 7 135 7 138 7 140 7 142 8 143 9l8 4C160 17 168 26 173 39 178 52 182 68 185 86 188 104 189 123 190 144 191 164 191 184 191 203l0 234C191 452 191 468 191 483 190 498 190 513 190 528l0 15C190 548 190 553 191 558 191 562 191 566 191 570l0 25C191 600 191 606 191 612 190 618 190 625 189 634l0 7C188 647 188 653 188 659 187 664 187 670 187 677 187 680 187 683 187 686 187 688 187 691 188 694l0 1C188 696 189 700 190 705 191 710 191 712 192 712l4 1C202 713 206 707 208 696 210 684 211 671 211 658 211 653 211 647 211 642 210 637 210 631 210 626l0-171M173 815C176 813 178 810 178 806 178 794 172 788 159 788 156 788 153 790 150 793 147 796 145 799 145 803l0 4C149 814 154 817 161 817 162 817 164 817 166 817 167 817 170 816 173 815M68 820C77 820 84 818 87 815 90 811 91 805 91 797 91 794 90 791 88 788 86 784 82 782 77 782 62 782 55 788 55 801 55 804 56 807 57 810 60 817 63 820 68 820z" unicode="Ü"></glyph>
    <glyph d="M210 455C210 435 211 415 212 395 213 374 213 355 213 336l0-84C213 237 213 219 214 200 214 180 214 160 213 140 212 120 210 100 208 81 205 62 201 45 196 30 190 15 182 3 173-6 163-15 151-20 136-20 112-20 93-11 79 7 65 25 54 48 47 75 39 102 34 131 32 163 30 195 29 225 29 254l0 19C29 277 29 281 29 286 28 290 28 294 28 298l0 26C28 358 28 392 29 425 30 458 30 493 30 531l0 26C30 572 30 586 30 601 29 615 29 629 29 644l0 38C29 684 29 687 29 691 29 695 29 699 30 703 30 707 31 711 32 714 33 717 35 718 38 718 41 718 45 717 48 715 51 712 53 710 53 709l0-11C53 668 53 638 52 609 51 580 51 550 51 520l0-118C51 380 51 355 52 328 53 300 53 275 52 253l0-30C52 205 53 186 54 167 55 148 56 129 59 112 62 95 65 79 70 66 75 52 80 41 87 34l8-9C101 17 107 12 113 10 118 8 125 7 132 7 133 7 135 7 138 7 140 7 142 8 143 9l8 4C160 17 168 26 173 39 178 52 182 68 185 86 188 104 189 123 190 144 191 164 191 184 191 203l0 234C191 452 191 468 191 483 190 498 190 513 190 528l0 15C190 548 190 553 191 558 191 562 191 566 191 570l0 25C191 600 191 606 191 612 190 618 190 625 189 634l0 7C188 647 188 653 188 659 187 664 187 670 187 677 187 680 187 683 187 686 187 688 187 691 188 694l0 1C188 696 189 700 190 705 191 710 191 712 192 712l4 1C202 713 206 707 208 696 210 684 211 671 211 658 211 653 211 647 211 642 210 637 210 631 210 626l0-171M125 789C126 788 126 786 126 785 126 784 126 783 125 782 124 781 121 781 114 781l-4 3C107 785 104 787 102 788 100 789 98 791 96 794 93 797 90 800 86 805 81 809 77 813 73 818 68 822 65 826 62 830 59 834 57 837 57 840 57 843 58 845 59 847 60 848 64 849 69 849 72 849 75 849 77 848 78 847 81 845 84 842l1-1C92 831 99 822 106 815 112 807 118 798 125 789z" unicode="Ù"></glyph>
    <glyph d="M210 455C210 435 211 415 212 395 213 374 213 355 213 336l0-84C213 237 213 219 214 200 214 180 214 160 213 140 212 120 210 100 208 81 205 62 201 45 196 30 190 15 182 3 173-6 163-15 151-20 136-20 112-20 93-11 79 7 65 25 54 48 47 75 39 102 34 131 32 163 30 195 29 225 29 254l0 19C29 277 29 281 29 286 28 290 28 294 28 298l0 26C28 358 28 392 29 425 30 458 30 493 30 531l0 26C30 572 30 586 30 601 29 615 29 629 29 644l0 38C29 684 29 687 29 691 29 695 29 699 30 703 30 707 31 711 32 714 33 717 35 718 38 718 41 718 45 717 48 715 51 712 53 710 53 709l0-11C53 668 53 638 52 609 51 580 51 550 51 520l0-118C51 380 51 355 52 328 53 300 53 275 52 253l0-30C52 205 53 186 54 167 55 148 56 129 59 112 62 95 65 79 70 66 75 52 80 41 87 34l8-9C101 17 107 12 113 10 118 8 125 7 132 7 133 7 135 7 138 7 140 7 142 8 143 9l8 4C160 17 168 26 173 39 178 52 182 68 185 86 188 104 189 123 190 144 191 164 191 184 191 203l0 234C191 452 191 468 191 483 190 498 190 513 190 528l0 15C190 548 190 553 191 558 191 562 191 566 191 570l0 25C191 600 191 606 191 612 190 618 190 625 189 634l0 7C188 647 188 653 188 659 187 664 187 670 187 677 187 680 187 683 187 686 187 688 187 691 188 694l0 1C188 696 189 700 190 705 191 710 191 712 192 712l4 1C202 713 206 707 208 696 210 684 211 671 211 658 211 653 211 647 211 642 210 637 210 631 210 626l0-171M148 839C148 835 146 831 142 827 138 822 133 817 127 812 121 807 115 801 109 795 102 788 97 781 92 773 91 772 89 771 85 771 82 771 80 774 80 781 85 790 90 799 95 806 100 813 105 819 110 826 115 832 119 836 123 839 125 840 128 842 131 843 134 844 136 844 138 844 140 844 142 844 145 843 147 842 148 840 148 839M212 839C212 835 210 831 206 827 202 822 197 817 191 812 185 807 179 801 173 795 166 788 161 781 156 773 155 772 153 771 150 771 147 771 145 774 145 781 150 790 155 799 160 806 165 813 169 819 174 826 179 832 183 836 187 839 189 840 192 842 195 843 198 844 200 844 203 844 205 844 207 844 209 843 211 842 212 840 212 839z" unicode="Ű"></glyph>
    <glyph d="M210 455C210 435 211 415 212 395 213 374 213 355 213 336l0-84C213 237 213 219 214 200 214 180 214 160 213 140 212 120 210 100 208 81 205 62 201 45 196 30 190 15 182 3 173-6 163-15 151-20 136-20 112-20 93-11 79 7 65 25 54 48 47 75 39 102 34 131 32 163 30 195 29 225 29 254l0 19C29 277 29 281 29 286 28 290 28 294 28 298l0 26C28 358 28 392 29 425 30 458 30 493 30 531l0 26C30 572 30 586 30 601 29 615 29 629 29 644l0 38C29 684 29 687 29 691 29 695 29 699 30 703 30 707 31 711 32 714 33 717 35 718 38 718 41 718 45 717 48 715 51 712 53 710 53 709l0-11C53 668 53 638 52 609 51 580 51 550 51 520l0-118C51 380 51 355 52 328 53 300 53 275 52 253l0-30C52 205 53 186 54 167 55 148 56 129 59 112 62 95 65 79 70 66 75 52 80 41 87 34l8-9C101 17 107 12 113 10 118 8 125 7 132 7 133 7 135 7 138 7 140 7 142 8 143 9l8 4C160 17 168 26 173 39 178 52 182 68 185 86 188 104 189 123 190 144 191 164 191 184 191 203l0 234C191 452 191 468 191 483 190 498 190 513 190 528l0 15C190 548 190 553 191 558 191 562 191 566 191 570l0 25C191 600 191 606 191 612 190 618 190 625 189 634l0 7C188 647 188 653 188 659 187 664 187 670 187 677 187 680 187 683 187 686 187 688 187 691 188 694l0 1C188 696 189 700 190 705 191 710 191 712 192 712l4 1C202 713 206 707 208 696 210 684 211 671 211 658 211 653 211 647 211 642 210 637 210 631 210 626l0-171M171 800C172 798 174 796 175 795 176 794 176 791 176 788 176 786 176 785 175 785 174 784 173 783 172 781 167 782 157 783 142 784 127 784 110 784 92 784l-23 0C64 784 61 785 60 787 59 788 58 791 58 794 58 795 59 797 62 799 65 801 70 802 77 802 82 802 92 802 106 802 119 802 132 802 143 803 154 803 164 802 171 800z" unicode="Ū"></glyph>
    <glyph d="M210 455C210 435 211 415 212 395 213 374 213 355 213 336l0-84C213 237 213 219 214 200 214 180 214 160 213 140 212 120 210 100 208 81 205 62 201 45 196 30 190 15 182 3 173-6 163-15 151-20 136-20 112-20 93-11 79 7 65 25 54 48 47 75 39 102 34 131 32 163 30 195 29 225 29 254l0 19C29 277 29 281 29 286 28 290 28 294 28 298l0 26C28 358 28 392 29 425 30 458 30 493 30 531l0 26C30 572 30 586 30 601 29 615 29 629 29 644l0 38C29 684 29 687 29 691 29 695 29 699 30 703 30 707 31 711 32 714 33 717 35 718 38 718 41 718 45 717 48 715 51 712 53 710 53 709l0-11C53 668 53 638 52 609 51 580 51 550 51 520l0-118C51 380 51 355 52 328 53 300 53 275 52 253l0-30C52 205 53 186 54 167 55 148 56 129 59 112 62 95 65 79 70 66 75 52 80 41 87 34l8-9C101 17 107 12 113 10 118 8 125 7 132 7 133 7 135 7 138 7 140 7 142 8 143 9l8 4C160 17 168 26 173 39 178 52 182 68 185 86 188 104 189 123 190 144 191 164 191 184 191 203l0 234C191 452 191 468 191 483 190 498 190 513 190 528l0 15C190 548 190 553 191 558 191 562 191 566 191 570l0 25C191 600 191 606 191 612 190 618 190 625 189 634l0 7C188 647 188 653 188 659 187 664 187 670 187 677 187 680 187 683 187 686 187 688 187 691 188 694l0 1C188 696 189 700 190 705 191 710 191 712 192 712l4 1C202 713 206 707 208 696 210 684 211 671 211 658 211 653 211 647 211 642 210 637 210 631 210 626l0-171M153-7C135-21 122-32 115-40 108-49 103-61 101-77 103-82 107-87 112-92 117-97 122-99 128-99 131-98 134-97 137-94 140-91 144-88 148-85 151-82 154-79 157-76 160-73 162-72 163-72 167-72 170-75 172-81 165-94 157-103 150-107 142-111 134-114 127-115 117-115 107-111 97-103 86-94 81-87 80-82 79-77 79-73 79-72 79-68 79-65 80-62 81-60 83-56 86-50 89-45 92-40 95-37 98-34 101-32 105-29 108-26 112-23 117-20 122-17 127-13 134-7z" unicode="Ų"></glyph>
    <glyph d="M210 455C210 435 211 415 212 395 213 374 213 355 213 336l0-84C213 237 213 219 214 200 214 180 214 160 213 140 212 120 210 100 208 81 205 62 201 45 196 30 190 15 182 3 173-6 163-15 151-20 136-20 112-20 93-11 79 7 65 25 54 48 47 75 39 102 34 131 32 163 30 195 29 225 29 254l0 19C29 277 29 281 29 286 28 290 28 294 28 298l0 26C28 358 28 392 29 425 30 458 30 493 30 531l0 26C30 572 30 586 30 601 29 615 29 629 29 644l0 38C29 684 29 687 29 691 29 695 29 699 30 703 30 707 31 711 32 714 33 717 35 718 38 718 41 718 45 717 48 715 51 712 53 710 53 709l0-11C53 668 53 638 52 609 51 580 51 550 51 520l0-118C51 380 51 355 52 328 53 300 53 275 52 253l0-30C52 205 53 186 54 167 55 148 56 129 59 112 62 95 65 79 70 66 75 52 80 41 87 34l8-9C101 17 107 12 113 10 118 8 125 7 132 7 133 7 135 7 138 7 140 7 142 8 143 9l8 4C160 17 168 26 173 39 178 52 182 68 185 86 188 104 189 123 190 144 191 164 191 184 191 203l0 234C191 452 191 468 191 483 190 498 190 513 190 528l0 15C190 548 190 553 191 558 191 562 191 566 191 570l0 25C191 600 191 606 191 612 190 618 190 625 189 634l0 7C188 647 188 653 188 659 187 664 187 670 187 677 187 680 187 683 187 686 187 688 187 691 188 694l0 1C188 696 189 700 190 705 191 710 191 712 192 712l4 1C202 713 206 707 208 696 210 684 211 671 211 658 211 653 211 647 211 642 210 637 210 631 210 626l0-171M81 849C86 854 90 858 94 861 98 864 103 865 110 864 113 864 118 864 124 863 129 862 135 859 142 852 149 844 153 837 156 830 158 823 160 816 163 809l0-3C163 803 163 800 163 797 162 794 161 790 158 787l-12-14C143 770 139 769 134 769l-8 0C123 770 119 771 114 773 109 775 104 778 101 781l-9 8C89 792 86 795 84 800 81 804 78 813 75 826 76 830 76 834 76 838 76 842 78 846 81 849M103 842C96 840 93 836 93 829 93 818 97 808 105 800 112 792 120 788 128 788 135 788 140 790 143 795 146 800 147 804 147 807 147 810 146 814 145 818 143 822 140 827 137 832l-5 6C122 843 112 844 103 842z" unicode="Ů"></glyph>
    <glyph d="M210 455C210 435 211 415 212 395 213 374 213 355 213 336l0-84C213 237 213 219 214 200 214 180 214 160 213 140 212 120 210 100 208 81 205 62 201 45 196 30 190 15 182 3 173-6 163-15 151-20 136-20 112-20 93-11 79 7 65 25 54 48 47 75 39 102 34 131 32 163 30 195 29 225 29 254l0 19C29 277 29 281 29 286 28 290 28 294 28 298l0 26C28 358 28 392 29 425 30 458 30 493 30 531l0 26C30 572 30 586 30 601 29 615 29 629 29 644l0 38C29 684 29 687 29 691 29 695 29 699 30 703 30 707 31 711 32 714 33 717 35 718 38 718 41 718 45 717 48 715 51 712 53 710 53 709l0-11C53 668 53 638 52 609 51 580 51 550 51 520l0-118C51 380 51 355 52 328 53 300 53 275 52 253l0-30C52 205 53 186 54 167 55 148 56 129 59 112 62 95 65 79 70 66 75 52 80 41 87 34l8-9C101 17 107 12 113 10 118 8 125 7 132 7 133 7 135 7 138 7 140 7 142 8 143 9l8 4C160 17 168 26 173 39 178 52 182 68 185 86 188 104 189 123 190 144 191 164 191 184 191 203l0 234C191 452 191 468 191 483 190 498 190 513 190 528l0 15C190 548 190 553 191 558 191 562 191 566 191 570l0 25C191 600 191 606 191 612 190 618 190 625 189 634l0 7C188 647 188 653 188 659 187 664 187 670 187 677 187 680 187 683 187 686 187 688 187 691 188 694l0 1C188 696 189 700 190 705 191 710 191 712 192 712l4 1C202 713 206 707 208 696 210 684 211 671 211 658 211 653 211 647 211 642 210 637 210 631 210 626l0-171M167 788C161 783 154 781 146 781 138 781 131 783 126 786 120 789 115 793 110 798 105 802 100 806 96 809 91 812 87 814 83 814 78 814 74 813 72 810 69 807 67 804 66 801 64 797 62 794 60 791 57 788 54 787 50 787 47 787 45 788 45 790 45 805 49 817 58 824 66 831 75 835 84 835 90 835 95 833 100 830 105 827 109 823 114 819 119 815 123 811 128 808 133 805 138 803 144 803 152 803 158 806 163 811 168 816 170 822 170 829l0 6C170 838 171 839 174 839 177 839 180 837 183 833 186 829 187 825 187 822 187 809 180 798 167 788z" unicode="Ũ"></glyph>
    <glyph d="M228 716C227 703 225 691 224 680 223 669 221 658 220 647l0-1C220 644 220 642 219 640 218 638 218 636 218 634l-18-113-16-111C178 373 173 337 168 301 163 265 157 229 152 193 148 166 144 139 140 112 136 85 132 57 128 30 126 15 122 3 117-6 109-6 105-5 104-3l-2-2 0 1-6 43 0 1-26 155C66 218 62 243 59 268 56 293 53 318 50 341 47 362 43 384 40 405 36 426 32 448 29 469l0 1C25 497 21 524 17 551 13 578 9 604 4 629 1 649-1 665-2 676-3 687-4 698-5 707-5 710-5 712-5 713-6 714-6 715-6 718l9 0C8 718 11 715 14 710 15 698 17 686 19 673 21 660 24 646 27 631 30 615 34 598 38 579 41 560 44 539 46 516 47 507 49 497 50 486 51 475 53 463 55 451 58 430 62 406 66 381 70 356 74 327 77 296l3-25C82 256 84 240 86 224 87 208 90 193 93 179 95 169 97 160 98 151 99 142 100 133 101 124 102 115 104 105 105 95 106 85 108 76 111 67 114 83 117 102 120 124 123 146 127 169 130 192 133 215 137 237 140 259 143 280 146 299 149 316 152 337 156 359 159 382 162 404 165 426 168 447l0 1 40 270 8 0C224 718 228 717 228 716z" unicode="V"></glyph>
    <glyph d="M385 717C386 716 387 715 388 715 388 714 388 713 388 712 387 711 387 710 387 709 386 708 386 706 386 704 386 701 386 699 386 697l-6-48C379 642 379 634 378 626 377 617 376 609 375 602l-22-175C352 412 350 398 348 385 346 372 344 359 343 346 341 330 339 314 337 298 334 282 332 265 331 247 328 218 324 190 320 165 316 140 312 113 307 85l0-2C307 81 307 79 306 78 305 77 305 75 305 73 306 76 306 74 305 67 304 60 302 53 301 46l0-1C300 35 298 25 297 14 295 3 293-2 291-2 290-2 289-3 288-5 287-8 286-10 285-13l-4 0C278-13 276-11 273-7 271-2 269 5 267 14 262 39 259 65 256 92 253 119 249 145 246 172l-6 56C238 249 236 266 234 280 232 294 230 308 228 321 227 332 225 344 223 355 220 366 218 380 216 397l-25 201C184 554 178 510 173 466 168 421 162 376 157 330l-19-153C138 174 137 170 136 165l0-1C135 153 133 137 130 117 127 97 124 78 121 59 117 40 113 23 108 10 103-4 98-11 93-11 88-6 83 4 80 20 77 35 74 51 72 66l0 1-3 19C66 107 63 129 60 150 57 171 54 191 51 212 46 248 41 286 36 326 31 365 27 406 22 447 17 488 13 529 9 570 5 611 2 652-1 691-2 694-2 698-2 703-2 708-2 712-2 715-2 717 0 718 4 718 7 718 9 718 12 717 15 716 16 715 17 714l12-99 8-91C38 509 40 493 42 478 43 463 45 447 46 432l5-45C54 362 57 337 60 314 63 290 66 265 70 238 72 227 74 215 76 203 78 190 80 178 81 167 83 148 85 130 88 112 90 94 93 77 96 60 101 93 106 126 111 159 116 192 120 223 124 254 127 275 129 297 132 319 135 341 138 364 141 387l0 1C143 403 145 417 146 430 147 442 149 454 151 466l10 80C162 553 163 560 164 567 165 574 165 580 166 587l6 46 6 42C179 678 185 680 195 680 196 680 198 680 200 680 201 679 202 679 203 679 204 678 206 673 207 664 208 655 209 646 210 638 211 633 211 627 212 620 213 613 213 612 212 615l11-81C225 521 227 507 229 493 230 478 232 464 233 451l12-94C248 334 251 312 253 291 255 270 257 250 260 231 263 205 266 179 269 152 272 125 277 96 282 64 289 107 296 149 301 191 306 232 311 274 316 316l14 106 9 77 9 78C349 590 351 604 354 618 356 632 358 646 359 659l0 5 2 16C362 686 362 692 363 698 364 703 365 707 367 709l0 2C369 716 373 718 380 718 381 718 382 718 383 718 384 717 384 717 385 717M285-14l0-1z" unicode="W"></glyph>
    <glyph d="M385 717C386 716 387 715 388 715 388 714 388 713 388 712 387 711 387 710 387 709 386 708 386 706 386 704 386 701 386 699 386 697l-6-48C379 642 379 634 378 626 377 617 376 609 375 602l-22-175C352 412 350 398 348 385 346 372 344 359 343 346 341 330 339 314 337 298 334 282 332 265 331 247 328 218 324 190 320 165 316 140 312 113 307 85l0-2C307 81 307 79 306 78 305 77 305 75 305 73 306 76 306 74 305 67 304 60 302 53 301 46l0-1C300 35 298 25 297 14 295 3 293-2 291-2 290-2 289-3 288-5 287-8 286-10 285-13l-4 0C278-13 276-11 273-7 271-2 269 5 267 14 262 39 259 65 256 92 253 119 249 145 246 172l-6 56C238 249 236 266 234 280 232 294 230 308 228 321 227 332 225 344 223 355 220 366 218 380 216 397l-25 201C184 554 178 510 173 466 168 421 162 376 157 330l-19-153C138 174 137 170 136 165l0-1C135 153 133 137 130 117 127 97 124 78 121 59 117 40 113 23 108 10 103-4 98-11 93-11 88-6 83 4 80 20 77 35 74 51 72 66l0 1-3 19C66 107 63 129 60 150 57 171 54 191 51 212 46 248 41 286 36 326 31 365 27 406 22 447 17 488 13 529 9 570 5 611 2 652-1 691-2 694-2 698-2 703-2 708-2 712-2 715-2 717 0 718 4 718 7 718 9 718 12 717 15 716 16 715 17 714l12-99 8-91C38 509 40 493 42 478 43 463 45 447 46 432l5-45C54 362 57 337 60 314 63 290 66 265 70 238 72 227 74 215 76 203 78 190 80 178 81 167 83 148 85 130 88 112 90 94 93 77 96 60 101 93 106 126 111 159 116 192 120 223 124 254 127 275 129 297 132 319 135 341 138 364 141 387l0 1C143 403 145 417 146 430 147 442 149 454 151 466l10 80C162 553 163 560 164 567 165 574 165 580 166 587l6 46 6 42C179 678 185 680 195 680 196 680 198 680 200 680 201 679 202 679 203 679 204 678 206 673 207 664 208 655 209 646 210 638 211 633 211 627 212 620 213 613 213 612 212 615l11-81C225 521 227 507 229 493 230 478 232 464 233 451l12-94C248 334 251 312 253 291 255 270 257 250 260 231 263 205 266 179 269 152 272 125 277 96 282 64 289 107 296 149 301 191 306 232 311 274 316 316l14 106 9 77 9 78C349 590 351 604 354 618 356 632 358 646 359 659l0 5 2 16C362 686 362 692 363 698 364 703 365 707 367 709l0 2C369 716 373 718 380 718 381 718 382 718 383 718 384 717 384 717 385 717M285-14l0-1M253 853C253 849 251 845 247 840 243 835 238 830 233 825 228 819 222 813 216 806 210 799 205 791 200 782 199 780 197 779 195 779 193 778 191 778 190 778 187 778 186 780 185 783 184 786 184 788 185 790 185 790 187 793 190 799 193 804 196 811 201 818 205 825 209 832 214 839 219 846 223 850 227 853 232 857 238 859 243 859 245 859 247 858 250 857 252 856 253 854 253 853z" unicode="Ẃ"></glyph>
    <glyph d="M385 717C386 716 387 715 388 715 388 714 388 713 388 712 387 711 387 710 387 709 386 708 386 706 386 704 386 701 386 699 386 697l-6-48C379 642 379 634 378 626 377 617 376 609 375 602l-22-175C352 412 350 398 348 385 346 372 344 359 343 346 341 330 339 314 337 298 334 282 332 265 331 247 328 218 324 190 320 165 316 140 312 113 307 85l0-2C307 81 307 79 306 78 305 77 305 75 305 73 306 76 306 74 305 67 304 60 302 53 301 46l0-1C300 35 298 25 297 14 295 3 293-2 291-2 290-2 289-3 288-5 287-8 286-10 285-13l-4 0C278-13 276-11 273-7 271-2 269 5 267 14 262 39 259 65 256 92 253 119 249 145 246 172l-6 56C238 249 236 266 234 280 232 294 230 308 228 321 227 332 225 344 223 355 220 366 218 380 216 397l-25 201C184 554 178 510 173 466 168 421 162 376 157 330l-19-153C138 174 137 170 136 165l0-1C135 153 133 137 130 117 127 97 124 78 121 59 117 40 113 23 108 10 103-4 98-11 93-11 88-6 83 4 80 20 77 35 74 51 72 66l0 1-3 19C66 107 63 129 60 150 57 171 54 191 51 212 46 248 41 286 36 326 31 365 27 406 22 447 17 488 13 529 9 570 5 611 2 652-1 691-2 694-2 698-2 703-2 708-2 712-2 715-2 717 0 718 4 718 7 718 9 718 12 717 15 716 16 715 17 714l12-99 8-91C38 509 40 493 42 478 43 463 45 447 46 432l5-45C54 362 57 337 60 314 63 290 66 265 70 238 72 227 74 215 76 203 78 190 80 178 81 167 83 148 85 130 88 112 90 94 93 77 96 60 101 93 106 126 111 159 116 192 120 223 124 254 127 275 129 297 132 319 135 341 138 364 141 387l0 1C143 403 145 417 146 430 147 442 149 454 151 466l10 80C162 553 163 560 164 567 165 574 165 580 166 587l6 46 6 42C179 678 185 680 195 680 196 680 198 680 200 680 201 679 202 679 203 679 204 678 206 673 207 664 208 655 209 646 210 638 211 633 211 627 212 620 213 613 213 612 212 615l11-81C225 521 227 507 229 493 230 478 232 464 233 451l12-94C248 334 251 312 253 291 255 270 257 250 260 231 263 205 266 179 269 152 272 125 277 96 282 64 289 107 296 149 301 191 306 232 311 274 316 316l14 106 9 77 9 78C349 590 351 604 354 618 356 632 358 646 359 659l0 5 2 16C362 686 362 692 363 698 364 703 365 707 367 709l0 2C369 716 373 718 380 718 381 718 382 718 383 718 384 717 384 717 385 717M285-14l0-1M160 842C164 847 168 852 172 855 176 858 180 860 183 860 185 860 188 858 193 853 198 848 202 844 205 840 209 834 213 830 217 827 220 824 224 821 227 818 230 815 233 811 236 808 239 804 243 799 247 792 248 791 248 790 248 788 248 785 246 783 242 783 238 783 234 785 230 789l-1 0C224 795 219 800 216 803 212 806 209 809 206 812 203 815 199 818 196 821 192 824 187 829 182 836 173 827 165 819 159 812 152 805 144 798 135 789l-10-5C124 784 123 784 122 783 119 783 116 786 115 791 122 802 129 811 136 816 143 821 151 830 159 841z" unicode="Ŵ"></glyph>
    <glyph d="M385 717C386 716 387 715 388 715 388 714 388 713 388 712 387 711 387 710 387 709 386 708 386 706 386 704 386 701 386 699 386 697l-6-48C379 642 379 634 378 626 377 617 376 609 375 602l-22-175C352 412 350 398 348 385 346 372 344 359 343 346 341 330 339 314 337 298 334 282 332 265 331 247 328 218 324 190 320 165 316 140 312 113 307 85l0-2C307 81 307 79 306 78 305 77 305 75 305 73 306 76 306 74 305 67 304 60 302 53 301 46l0-1C300 35 298 25 297 14 295 3 293-2 291-2 290-2 289-3 288-5 287-8 286-10 285-13l-4 0C278-13 276-11 273-7 271-2 269 5 267 14 262 39 259 65 256 92 253 119 249 145 246 172l-6 56C238 249 236 266 234 280 232 294 230 308 228 321 227 332 225 344 223 355 220 366 218 380 216 397l-25 201C184 554 178 510 173 466 168 421 162 376 157 330l-19-153C138 174 137 170 136 165l0-1C135 153 133 137 130 117 127 97 124 78 121 59 117 40 113 23 108 10 103-4 98-11 93-11 88-6 83 4 80 20 77 35 74 51 72 66l0 1-3 19C66 107 63 129 60 150 57 171 54 191 51 212 46 248 41 286 36 326 31 365 27 406 22 447 17 488 13 529 9 570 5 611 2 652-1 691-2 694-2 698-2 703-2 708-2 712-2 715-2 717 0 718 4 718 7 718 9 718 12 717 15 716 16 715 17 714l12-99 8-91C38 509 40 493 42 478 43 463 45 447 46 432l5-45C54 362 57 337 60 314 63 290 66 265 70 238 72 227 74 215 76 203 78 190 80 178 81 167 83 148 85 130 88 112 90 94 93 77 96 60 101 93 106 126 111 159 116 192 120 223 124 254 127 275 129 297 132 319 135 341 138 364 141 387l0 1C143 403 145 417 146 430 147 442 149 454 151 466l10 80C162 553 163 560 164 567 165 574 165 580 166 587l6 46 6 42C179 678 185 680 195 680 196 680 198 680 200 680 201 679 202 679 203 679 204 678 206 673 207 664 208 655 209 646 210 638 211 633 211 627 212 620 213 613 213 612 212 615l11-81C225 521 227 507 229 493 230 478 232 464 233 451l12-94C248 334 251 312 253 291 255 270 257 250 260 231 263 205 266 179 269 152 272 125 277 96 282 64 289 107 296 149 301 191 306 232 311 274 316 316l14 106 9 77 9 78C349 590 351 604 354 618 356 632 358 646 359 659l0 5 2 16C362 686 362 692 363 698 364 703 365 707 367 709l0 2C369 716 373 718 380 718 381 718 382 718 383 718 384 717 384 717 385 717M285-14l0-1M241 815C244 813 246 810 246 806 246 794 240 788 227 788 224 788 221 790 218 793 215 796 213 799 213 803l0 4C217 814 222 817 229 817 230 817 232 817 234 817 235 817 238 816 241 815M136 820C145 820 152 818 155 815 158 811 159 805 159 797 159 794 158 791 156 788 154 784 150 782 145 782 130 782 123 788 123 801 123 804 124 807 125 810 128 817 131 820 136 820z" unicode="Ẅ"></glyph>
    <glyph d="M385 717C386 716 387 715 388 715 388 714 388 713 388 712 387 711 387 710 387 709 386 708 386 706 386 704 386 701 386 699 386 697l-6-48C379 642 379 634 378 626 377 617 376 609 375 602l-22-175C352 412 350 398 348 385 346 372 344 359 343 346 341 330 339 314 337 298 334 282 332 265 331 247 328 218 324 190 320 165 316 140 312 113 307 85l0-2C307 81 307 79 306 78 305 77 305 75 305 73 306 76 306 74 305 67 304 60 302 53 301 46l0-1C300 35 298 25 297 14 295 3 293-2 291-2 290-2 289-3 288-5 287-8 286-10 285-13l-4 0C278-13 276-11 273-7 271-2 269 5 267 14 262 39 259 65 256 92 253 119 249 145 246 172l-6 56C238 249 236 266 234 280 232 294 230 308 228 321 227 332 225 344 223 355 220 366 218 380 216 397l-25 201C184 554 178 510 173 466 168 421 162 376 157 330l-19-153C138 174 137 170 136 165l0-1C135 153 133 137 130 117 127 97 124 78 121 59 117 40 113 23 108 10 103-4 98-11 93-11 88-6 83 4 80 20 77 35 74 51 72 66l0 1-3 19C66 107 63 129 60 150 57 171 54 191 51 212 46 248 41 286 36 326 31 365 27 406 22 447 17 488 13 529 9 570 5 611 2 652-1 691-2 694-2 698-2 703-2 708-2 712-2 715-2 717 0 718 4 718 7 718 9 718 12 717 15 716 16 715 17 714l12-99 8-91C38 509 40 493 42 478 43 463 45 447 46 432l5-45C54 362 57 337 60 314 63 290 66 265 70 238 72 227 74 215 76 203 78 190 80 178 81 167 83 148 85 130 88 112 90 94 93 77 96 60 101 93 106 126 111 159 116 192 120 223 124 254 127 275 129 297 132 319 135 341 138 364 141 387l0 1C143 403 145 417 146 430 147 442 149 454 151 466l10 80C162 553 163 560 164 567 165 574 165 580 166 587l6 46 6 42C179 678 185 680 195 680 196 680 198 680 200 680 201 679 202 679 203 679 204 678 206 673 207 664 208 655 209 646 210 638 211 633 211 627 212 620 213 613 213 612 212 615l11-81C225 521 227 507 229 493 230 478 232 464 233 451l12-94C248 334 251 312 253 291 255 270 257 250 260 231 263 205 266 179 269 152 272 125 277 96 282 64 289 107 296 149 301 191 306 232 311 274 316 316l14 106 9 77 9 78C349 590 351 604 354 618 356 632 358 646 359 659l0 5 2 16C362 686 362 692 363 698 364 703 365 707 367 709l0 2C369 716 373 718 380 718 381 718 382 718 383 718 384 717 384 717 385 717M285-14l0-1M192 789C193 788 193 786 193 785 193 784 193 783 192 782 191 781 188 781 181 781l-4 3C174 785 171 787 169 788 167 789 165 791 163 794 160 797 157 800 153 805 148 809 144 813 140 818 135 822 132 826 129 830 126 834 124 837 124 840 124 843 125 845 126 847 127 848 131 849 136 849 139 849 142 849 144 848 145 847 148 845 151 842l1-1C159 831 166 822 173 815 179 807 185 798 192 789z" unicode="Ẁ"></glyph>
    <glyph d="M185 713l-21-92-18-82-16-72C120 424 112 386 107 355l0-4C110 335 114 317 119 298 124 279 129 257 136 232 143 207 151 179 159 149 166 118 174 86 183 51l0-1C186 41 188 32 189 24 190 16 192 8 193 1l0-1C192-1 189-2 184-2 181-2 178-1 175 0l-33 136C141 141 138 151 134 167 129 182 124 199 119 218 114 236 109 253 104 270 99 287 94 298 91 305l0-2-7-24C79 260 73 238 66 215 59 192 51 164 44 132l-31-142C12-9 10-9 7-9 3-9 1-9 0-9-2-9-3-9-4-10-4-9-4-7-3-6-3-5-3-4-3-2l0 1C-2 4-1 9 0 14 1 18 1 23 2 28l3 18 6 29C14 94 18 111 22 126 25 141 29 155 33 170l13 55C47 230 49 237 52 245 54 253 56 262 59 272 64 287 69 303 73 319 76 334 78 346 79 353l0 3-21 88C51 478 43 513 35 549 27 584 19 622 12 661 10 670 8 679 7 688 5 697 3 706 0 715 1 719 5 721 12 721 13 721 15 721 16 721 17 721 18 721 19 720l20-87C47 597 55 560 64 523 72 485 80 447 88 408 90 397 92 389 93 386l0 2C106 443 116 488 124 523 132 558 138 587 143 610 148 633 151 651 154 664 157 677 159 689 160 700 161 709 166 716 174 720l6 2C183 722 185 721 185 720M186 711C185 712 185 712 185 713 186 714 186 714 186 715 185 715 185 716 186 717M-5-10C-5-10-5-10-4-10M194 0C193 0 193 0 193 1 194 0 194 0 194 0z" unicode="X"></glyph>
    <glyph d="M224 21C225 21 226 21 227 22 227 22 228 22 229 22 236 22 241 20 243 15l0-11C243 3 241 3 238 2 234 1 230 1 225 0 220-1 214-1 209-1 204-2 200-2 197-2l-8 0C173-2 157-1 142 1 126 2 110 3 95 3l-7 0C77 3 65 2 53 0 41-3 29-4 18-4 11-4 8-2 7 2 6 5 5 8 5 9 5 12 6 15 8 19 9 23 11 27 12 31l3 8C26 72 37 106 48 140 59 173 69 208 79 243l9 32C97 307 107 340 117 374 127 408 137 441 147 474l36 114C188 605 193 621 198 637 203 652 208 668 214 683l0 13C209 699 204 700 200 700l-8 0C191 700 189 700 187 700 185 699 183 699 182 699l-11 0C154 699 141 698 131 697 121 696 112 695 105 695l-65 0C32 695 28 699 28 707l0 7C29 717 30 719 33 720 35 721 38 721 43 721l10 0C58 721 62 721 67 720 72 719 77 718 83 718l10 0C95 718 97 718 99 719 101 719 103 719 105 719l121 0 1 1C230 720 234 719 237 716 240 713 242 708 242 703 242 702 242 699 241 695 240 691 239 687 238 682 237 677 236 672 235 669 234 665 234 663 234 663l0 1C231 656 229 648 226 641 223 633 219 625 216 617 210 605 205 591 200 576 195 560 191 543 187 526 182 509 177 491 172 473 167 455 160 437 153 420l0-1C142 391 132 362 124 333 116 303 108 273 100 244l-21-76-22-81C57 86 56 82 55 77 54 72 52 66 50 59 47 52 45 44 42 37 39 30 36 23 33 17 38 17 42 17 47 18 51 19 55 19 58 19 66 19 75 20 84 21 93 22 102 22 111 22 120 22 129 22 138 22 147 21 156 21 165 21l59 0z" unicode="Z"></glyph>
    <glyph d="M224 21C225 21 226 21 227 22 227 22 228 22 229 22 236 22 241 20 243 15l0-11C243 3 241 3 238 2 234 1 230 1 225 0 220-1 214-1 209-1 204-2 200-2 197-2l-8 0C173-2 157-1 142 1 126 2 110 3 95 3l-7 0C77 3 65 2 53 0 41-3 29-4 18-4 11-4 8-2 7 2 6 5 5 8 5 9 5 12 6 15 8 19 9 23 11 27 12 31l3 8C26 72 37 106 48 140 59 173 69 208 79 243l9 32C97 307 107 340 117 374 127 408 137 441 147 474l36 114C188 605 193 621 198 637 203 652 208 668 214 683l0 13C209 699 204 700 200 700l-8 0C191 700 189 700 187 700 185 699 183 699 182 699l-11 0C154 699 141 698 131 697 121 696 112 695 105 695l-65 0C32 695 28 699 28 707l0 7C29 717 30 719 33 720 35 721 38 721 43 721l10 0C58 721 62 721 67 720 72 719 77 718 83 718l10 0C95 718 97 718 99 719 101 719 103 719 105 719l121 0 1 1C230 720 234 719 237 716 240 713 242 708 242 703 242 702 242 699 241 695 240 691 239 687 238 682 237 677 236 672 235 669 234 665 234 663 234 663l0 1C231 656 229 648 226 641 223 633 219 625 216 617 210 605 205 591 200 576 195 560 191 543 187 526 182 509 177 491 172 473 167 455 160 437 153 420l0-1C142 391 132 362 124 333 116 303 108 273 100 244l-21-76-22-81C57 86 56 82 55 77 54 72 52 66 50 59 47 52 45 44 42 37 39 30 36 23 33 17 38 17 42 17 47 18 51 19 55 19 58 19 66 19 75 20 84 21 93 22 102 22 111 22 120 22 129 22 138 22 147 21 156 21 165 21l59 0M188 853C188 849 186 845 182 840 178 835 173 830 168 825 163 819 157 813 151 806 145 799 140 791 135 782 134 780 132 779 130 779 128 778 126 778 125 778 122 778 121 780 120 783 119 786 119 788 120 790 120 790 122 793 125 799 128 804 131 811 136 818 140 825 144 832 149 839 154 846 158 850 162 853 167 857 173 859 178 859 180 859 182 858 185 857 187 856 188 854 188 853z" unicode="Ź"></glyph>
    <glyph d="M224 21C225 21 226 21 227 22 227 22 228 22 229 22 236 22 241 20 243 15l0-11C243 3 241 3 238 2 234 1 230 1 225 0 220-1 214-1 209-1 204-2 200-2 197-2l-8 0C173-2 157-1 142 1 126 2 110 3 95 3l-7 0C77 3 65 2 53 0 41-3 29-4 18-4 11-4 8-2 7 2 6 5 5 8 5 9 5 12 6 15 8 19 9 23 11 27 12 31l3 8C26 72 37 106 48 140 59 173 69 208 79 243l9 32C97 307 107 340 117 374 127 408 137 441 147 474l36 114C188 605 193 621 198 637 203 652 208 668 214 683l0 13C209 699 204 700 200 700l-8 0C191 700 189 700 187 700 185 699 183 699 182 699l-11 0C154 699 141 698 131 697 121 696 112 695 105 695l-65 0C32 695 28 699 28 707l0 7C29 717 30 719 33 720 35 721 38 721 43 721l10 0C58 721 62 721 67 720 72 719 77 718 83 718l10 0C95 718 97 718 99 719 101 719 103 719 105 719l121 0 1 1C230 720 234 719 237 716 240 713 242 708 242 703 242 702 242 699 241 695 240 691 239 687 238 682 237 677 236 672 235 669 234 665 234 663 234 663l0 1C231 656 229 648 226 641 223 633 219 625 216 617 210 605 205 591 200 576 195 560 191 543 187 526 182 509 177 491 172 473 167 455 160 437 153 420l0-1C142 391 132 362 124 333 116 303 108 273 100 244l-21-76-22-81C57 86 56 82 55 77 54 72 52 66 50 59 47 52 45 44 42 37 39 30 36 23 33 17 38 17 42 17 47 18 51 19 55 19 58 19 66 19 75 20 84 21 93 22 102 22 111 22 120 22 129 22 138 22 147 21 156 21 165 21l59 0M115 790C105 800 97 808 90 815 83 821 77 830 70 841 71 846 73 848 77 848l3 0 10-5C99 834 107 827 113 820 119 813 127 805 136 796 141 802 145 807 149 811 152 814 156 817 159 820 162 823 166 826 170 829 173 832 178 837 183 843 186 846 190 848 195 848 199 848 201 847 201 844 201 842 201 841 200 840 196 833 192 828 189 825 186 821 183 818 180 815 177 812 173 809 170 806 166 803 162 798 158 792 155 788 151 784 146 780 141 775 138 773 137 773 134 773 130 775 127 779 123 782 119 786 115 790z" unicode="Ž"></glyph>
    <glyph d="M224 21C225 21 226 21 227 22 227 22 228 22 229 22 236 22 241 20 243 15l0-11C243 3 241 3 238 2 234 1 230 1 225 0 220-1 214-1 209-1 204-2 200-2 197-2l-8 0C173-2 157-1 142 1 126 2 110 3 95 3l-7 0C77 3 65 2 53 0 41-3 29-4 18-4 11-4 8-2 7 2 6 5 5 8 5 9 5 12 6 15 8 19 9 23 11 27 12 31l3 8C26 72 37 106 48 140 59 173 69 208 79 243l9 32C97 307 107 340 117 374 127 408 137 441 147 474l36 114C188 605 193 621 198 637 203 652 208 668 214 683l0 13C209 699 204 700 200 700l-8 0C191 700 189 700 187 700 185 699 183 699 182 699l-11 0C154 699 141 698 131 697 121 696 112 695 105 695l-65 0C32 695 28 699 28 707l0 7C29 717 30 719 33 720 35 721 38 721 43 721l10 0C58 721 62 721 67 720 72 719 77 718 83 718l10 0C95 718 97 718 99 719 101 719 103 719 105 719l121 0 1 1C230 720 234 719 237 716 240 713 242 708 242 703 242 702 242 699 241 695 240 691 239 687 238 682 237 677 236 672 235 669 234 665 234 663 234 663l0 1C231 656 229 648 226 641 223 633 219 625 216 617 210 605 205 591 200 576 195 560 191 543 187 526 182 509 177 491 172 473 167 455 160 437 153 420l0-1C142 391 132 362 124 333 116 303 108 273 100 244l-21-76-22-81C57 86 56 82 55 77 54 72 52 66 50 59 47 52 45 44 42 37 39 30 36 23 33 17 38 17 42 17 47 18 51 19 55 19 58 19 66 19 75 20 84 21 93 22 102 22 111 22 120 22 129 22 138 22 147 21 156 21 165 21l59 0M125 816C126 817 128 817 130 817 132 817 134 817 135 817 140 817 144 814 146 809 148 804 149 799 149 795 149 791 148 788 145 785 142 782 137 780 132 780 127 780 123 781 120 784 116 787 114 791 114 797 114 802 115 806 117 809 119 812 122 814 125 816z" unicode="Ż"></glyph>
    <glyph d="M145 182C145 167 146 149 147 129 148 108 148 89 148 72 148 61 148 50 147 40 146 29 143 20 138 12 133 4 126-2 117-7 108-12 95-14 78-14l-5 0C64-12 55-7 48 0 41 7 35 16 30 27 25 38 21 50 18 63 15 76 14 88 14 101 14 141 20 174 32 201 43 228 64 247 95 258 96 258 98 258 101 259 104 259 107 260 110 262 113 264 116 268 119 273 122 278 123 286 123 296l0 84C123 381 123 381 123 382 122 383 122 384 122 385l0 5C122 401 121 413 120 426 119 439 117 452 115 463 112 474 109 484 106 492 102 499 97 503 92 503 89 503 86 502 82 499 78 496 74 492 70 488 66 483 62 478 58 473 54 467 51 462 49 457 46 452 44 448 41 444 38 440 35 438 31 438 26 438 24 442 24 451 24 463 27 474 32 484 37 493 44 501 51 508 58 515 66 520 73 523 80 526 86 528 91 528 102 528 111 523 118 514 125 504 131 491 135 475 139 458 142 439 144 417 145 395 146 372 146 347 146 332 146 315 146 297 145 278 145 261 145 244M112 19C118 24 122 32 124 45 125 57 126 70 126 85 126 92 126 101 126 113 125 125 125 137 125 150 124 163 124 174 124 185 123 195 123 201 123 204l0 33C110 237 96 233 82 226 68 218 56 202 47 179l0-1C44 168 41 157 40 144 38 131 37 118 37 104 37 95 38 85 39 75 40 65 42 57 45 51l0-1C54 36 60 26 63 20 66 13 73 10 83 10l6 0C91 10 94 11 98 12 101 13 106 16 112 19z" unicode="a"></glyph>
    <glyph d="M145 182C145 167 146 149 147 129 148 108 148 89 148 72 148 61 148 50 147 40 146 29 143 20 138 12 133 4 126-2 117-7 108-12 95-14 78-14l-5 0C64-12 55-7 48 0 41 7 35 16 30 27 25 38 21 50 18 63 15 76 14 88 14 101 14 141 20 174 32 201 43 228 64 247 95 258 96 258 98 258 101 259 104 259 107 260 110 262 113 264 116 268 119 273 122 278 123 286 123 296l0 84C123 381 123 381 123 382 122 383 122 384 122 385l0 5C122 401 121 413 120 426 119 439 117 452 115 463 112 474 109 484 106 492 102 499 97 503 92 503 89 503 86 502 82 499 78 496 74 492 70 488 66 483 62 478 58 473 54 467 51 462 49 457 46 452 44 448 41 444 38 440 35 438 31 438 26 438 24 442 24 451 24 463 27 474 32 484 37 493 44 501 51 508 58 515 66 520 73 523 80 526 86 528 91 528 102 528 111 523 118 514 125 504 131 491 135 475 139 458 142 439 144 417 145 395 146 372 146 347 146 332 146 315 146 297 145 278 145 261 145 244M112 19C118 24 122 32 124 45 125 57 126 70 126 85 126 92 126 101 126 113 125 125 125 137 125 150 124 163 124 174 124 185 123 195 123 201 123 204l0 33C110 237 96 233 82 226 68 218 56 202 47 179l0-1C44 168 41 157 40 144 38 131 37 118 37 104 37 95 38 85 39 75 40 65 42 57 45 51l0-1C54 36 60 26 63 20 66 13 73 10 83 10l6 0C91 10 94 11 98 12 101 13 106 16 112 19M152 655C152 651 150 647 146 642 142 637 137 632 132 627 127 621 121 615 115 608 109 601 104 593 99 584 98 582 96 581 94 581 92 580 90 580 89 580 86 580 85 582 84 585 83 588 83 590 84 592 84 592 86 595 89 601 92 606 95 613 100 620 104 627 108 634 113 641 118 648 122 652 126 655 131 659 137 661 142 661 144 661 146 660 149 659 151 658 152 656 152 655z" unicode="á"></glyph>
    <glyph d="M145 182C145 167 146 149 147 129 148 108 148 89 148 72 148 61 148 50 147 40 146 29 143 20 138 12 133 4 126-2 117-7 108-12 95-14 78-14l-5 0C64-12 55-7 48 0 41 7 35 16 30 27 25 38 21 50 18 63 15 76 14 88 14 101 14 141 20 174 32 201 43 228 64 247 95 258 96 258 98 258 101 259 104 259 107 260 110 262 113 264 116 268 119 273 122 278 123 286 123 296l0 84C123 381 123 381 123 382 122 383 122 384 122 385l0 5C122 401 121 413 120 426 119 439 117 452 115 463 112 474 109 484 106 492 102 499 97 503 92 503 89 503 86 502 82 499 78 496 74 492 70 488 66 483 62 478 58 473 54 467 51 462 49 457 46 452 44 448 41 444 38 440 35 438 31 438 26 438 24 442 24 451 24 463 27 474 32 484 37 493 44 501 51 508 58 515 66 520 73 523 80 526 86 528 91 528 102 528 111 523 118 514 125 504 131 491 135 475 139 458 142 439 144 417 145 395 146 372 146 347 146 332 146 315 146 297 145 278 145 261 145 244M112 19C118 24 122 32 124 45 125 57 126 70 126 85 126 92 126 101 126 113 125 125 125 137 125 150 124 163 124 174 124 185 123 195 123 201 123 204l0 33C110 237 96 233 82 226 68 218 56 202 47 179l0-1C44 168 41 157 40 144 38 131 37 118 37 104 37 95 38 85 39 75 40 65 42 57 45 51l0-1C54 36 60 26 63 20 66 13 73 10 83 10l6 0C91 10 94 11 98 12 101 13 106 16 112 19M56 605C61 602 66 601 69 600 72 599 76 599 81 599 82 599 84 599 89 599 93 598 98 599 104 601 109 602 114 605 119 610 124 615 127 622 129 632 130 640 133 644 139 644 143 644 145 641 145 635 145 620 140 606 129 594 118 582 100 576 77 576 70 576 63 578 56 582 49 585 42 590 37 596 32 601 27 607 24 614 21 621 19 627 19 633 19 638 22 641 27 641 30 641 32 640 34 637 35 634 37 631 38 627 39 623 41 619 44 615 47 611 51 608 56 605z" unicode="ă"></glyph>
    <glyph d="M145 182C145 167 146 149 147 129 148 108 148 89 148 72 148 61 148 50 147 40 146 29 143 20 138 12 133 4 126-2 117-7 108-12 95-14 78-14l-5 0C64-12 55-7 48 0 41 7 35 16 30 27 25 38 21 50 18 63 15 76 14 88 14 101 14 141 20 174 32 201 43 228 64 247 95 258 96 258 98 258 101 259 104 259 107 260 110 262 113 264 116 268 119 273 122 278 123 286 123 296l0 84C123 381 123 381 123 382 122 383 122 384 122 385l0 5C122 401 121 413 120 426 119 439 117 452 115 463 112 474 109 484 106 492 102 499 97 503 92 503 89 503 86 502 82 499 78 496 74 492 70 488 66 483 62 478 58 473 54 467 51 462 49 457 46 452 44 448 41 444 38 440 35 438 31 438 26 438 24 442 24 451 24 463 27 474 32 484 37 493 44 501 51 508 58 515 66 520 73 523 80 526 86 528 91 528 102 528 111 523 118 514 125 504 131 491 135 475 139 458 142 439 144 417 145 395 146 372 146 347 146 332 146 315 146 297 145 278 145 261 145 244M112 19C118 24 122 32 124 45 125 57 126 70 126 85 126 92 126 101 126 113 125 125 125 137 125 150 124 163 124 174 124 185 123 195 123 201 123 204l0 33C110 237 96 233 82 226 68 218 56 202 47 179l0-1C44 168 41 157 40 144 38 131 37 118 37 104 37 95 38 85 39 75 40 65 42 57 45 51l0-1C54 36 60 26 63 20 66 13 73 10 83 10l6 0C91 10 94 11 98 12 101 13 106 16 112 19M58 644C62 649 66 654 70 657 74 660 78 662 81 662 83 662 86 660 91 655 96 650 100 646 103 642 107 636 111 632 115 629 118 626 122 623 125 620 128 617 131 613 134 610 137 606 141 601 145 594 146 593 146 592 146 590 146 587 144 585 140 585 136 585 132 587 128 591l-1 0C122 597 117 602 114 605 110 608 107 611 104 614 101 617 97 620 94 623 90 626 85 631 80 638 71 629 63 621 57 614 50 607 42 600 33 591l-10-5C22 586 21 586 20 585 17 585 14 588 13 593 20 604 27 613 34 618 41 623 49 632 57 643z" unicode="â"></glyph>
    <glyph d="M101 655C101 651 99 647 95 642 91 637 86 632 81 627 76 621 70 615 64 608 58 601 53 593 48 584 47 582 45 581 43 581 41 580 39 580 38 580 35 580 34 582 33 585 32 588 32 590 33 592 33 592 35 595 38 601 41 606 44 613 49 620 53 627 57 634 62 641 67 648 71 652 75 655 80 659 86 661 91 661 93 661 95 660 98 659 100 658 101 656 101 655z" unicode="´"></glyph>
    <glyph d="M145 182C145 167 146 149 147 129 148 108 148 89 148 72 148 61 148 50 147 40 146 29 143 20 138 12 133 4 126-2 117-7 108-12 95-14 78-14l-5 0C64-12 55-7 48 0 41 7 35 16 30 27 25 38 21 50 18 63 15 76 14 88 14 101 14 141 20 174 32 201 43 228 64 247 95 258 96 258 98 258 101 259 104 259 107 260 110 262 113 264 116 268 119 273 122 278 123 286 123 296l0 84C123 381 123 381 123 382 122 383 122 384 122 385l0 5C122 401 121 413 120 426 119 439 117 452 115 463 112 474 109 484 106 492 102 499 97 503 92 503 89 503 86 502 82 499 78 496 74 492 70 488 66 483 62 478 58 473 54 467 51 462 49 457 46 452 44 448 41 444 38 440 35 438 31 438 26 438 24 442 24 451 24 463 27 474 32 484 37 493 44 501 51 508 58 515 66 520 73 523 80 526 86 528 91 528 102 528 111 523 118 514 125 504 131 491 135 475 139 458 142 439 144 417 145 395 146 372 146 347 146 332 146 315 146 297 145 278 145 261 145 244M112 19C118 24 122 32 124 45 125 57 126 70 126 85 126 92 126 101 126 113 125 125 125 137 125 150 124 163 124 174 124 185 123 195 123 201 123 204l0 33C110 237 96 233 82 226 68 218 56 202 47 179l0-1C44 168 41 157 40 144 38 131 37 118 37 104 37 95 38 85 39 75 40 65 42 57 45 51l0-1C54 36 60 26 63 20 66 13 73 10 83 10l6 0C91 10 94 11 98 12 101 13 106 16 112 19M139 617C142 615 144 612 144 608 144 596 138 590 125 590 122 590 119 592 116 595 113 598 111 601 111 605l0 4C115 616 120 619 127 619 128 619 130 619 132 619 133 619 136 618 139 617M34 622C43 622 50 620 53 617 56 613 57 607 57 599 57 596 56 593 54 590 52 586 48 584 43 584 28 584 21 590 21 603 21 606 22 609 23 612 26 619 29 622 34 622z" unicode="ä"></glyph>
    <glyph d="M261 106C266 102 269 94 269 83l0-9C269 73 269 71 268 70 267 68 267 66 267 63 266 50 264 40 263 33 262 26 259 20 256 16l0-4C254 8 246 2 233-5 227-8 219-10 208-11 201-11 193-10 184-8 175-7 168-3 163 3 158 10 154 16 151 21 148 26 145 31 144 36l0-1C143 28 141 22 139 17 136 11 132 5 126-2 121-8 115-11 106-12 97-13 88-14 77-14l-5 0C62-12 52-5 43 6 34 17 26 29 21 43 16 63 13 82 13 101 13 115 14 130 16 147 18 164 21 180 25 195 28 210 33 224 39 237 45 250 52 259 60 265 62 266 66 268 73 270 80 272 87 274 94 277 96 278 99 280 102 281 105 282 109 283 115 286 118 287 120 290 121 295 122 300 122 307 122 316l0 64C122 381 122 381 122 382 121 383 121 384 121 385l0 5C121 399 121 409 120 420 119 431 117 441 116 452 115 462 113 471 110 480 107 488 104 494 101 498 96 501 93 503 91 503 85 503 78 499 71 491 64 482 57 473 52 463l0-4C52 458 52 458 51 457 50 456 50 456 50 455l-2 2C45 452 43 448 40 444 37 440 34 438 30 438 25 438 23 442 23 451 23 466 28 480 38 492 47 504 56 513 63 519 66 522 70 524 75 526 80 527 85 528 90 528 102 528 112 523 119 514 126 504 132 492 136 477 137 482 139 488 141 495 143 501 145 506 148 511l0 1C156 529 171 537 192 537 197 537 200 537 202 536 231 530 249 501 255 449 256 434 258 410 260 379 261 347 263 311 264 272l-1-1C261 264 255 261 246 261l-16 3C229 264 229 264 229 265 228 265 228 265 227 265l-4 1-4 0C218 266 216 266 215 266 213 266 210 265 207 264 202 263 197 263 192 263 187 263 183 263 181 263 176 263 170 263 164 262 158 261 153 260 148 258l0-95C149 120 151 90 156 71l0-1C167 43 180 26 196 19 199 18 203 16 208 15 213 13 216 12 217 12 222 12 227 15 232 20 237 25 241 33 244 46l0 1C245 51 246 55 246 60 246 64 246 69 246 74 246 76 246 78 247 80 247 82 247 84 247 85l1 2C250 96 254 102 261 104M160 488C154 471 150 453 148 434 146 415 145 395 145 375 145 365 145 352 145 336 145 319 146 307 147 298l0-9C150 289 153 289 157 289 161 289 165 289 168 288 171 288 175 288 180 288 185 288 189 288 192 287l12 0C208 287 212 287 216 287 219 287 223 287 227 288 228 288 230 288 232 289 234 289 236 289 238 289l0 10C238 324 238 347 238 370 237 392 237 408 236 417 235 438 233 453 232 462 230 471 227 479 224 486 220 494 216 501 212 507 207 513 202 516 196 516l-4 0C185 515 180 512 175 509 170 506 165 498 160 487M111 19C117 24 121 32 123 45 124 57 125 70 125 85 125 88 125 94 125 102 124 109 124 118 124 127 123 138 123 149 123 161 123 172 123 181 123 186 123 189 123 193 123 198 122 203 122 208 122 213l0 44C109 257 96 254 83 248 70 242 58 228 48 205 46 200 44 194 43 186 41 177 40 168 39 159 38 149 37 139 37 130 36 120 36 111 36 104 36 95 37 85 38 75 39 65 41 57 44 51l0-1C53 36 60 26 65 20 70 13 76 10 81 10l7 0C90 10 93 11 97 12 100 13 105 16 111 19z" unicode="æ"></glyph>
    </font>
</svg>
